[ Сегодня идет свободное скачивание без начисления Download ]


Статистика раздачи
Скачал: [ 24 ]
 
   
 
 
 
 
Лего Фильм: Бэтмен / The LEGO Batman Movie
«Всегда будь собой. Если только ты не Бэтмен»
Год выпуска: 2017
Страна: США, Дания
Производство: DC Entertainment, LEGO System A/S, Lin Pictures, Lord Miller, Vertigo Entertainment, Warner Animation Group, Warner Bros. Animation, Warner Bros. Pictures
Жанр: Мультфильм, фэнтези, боевик, комедия, приключения, семейный
Режиссёр: Крис МакКей
В ролях: Уилл Арнетт, Майкл Сера, Розарио Доусон, Рэйф Файнс, Зак Галифианакис, Дженни Слейт, Джейсон Манцукас, Конан О’Брайен, Даг Бенсон
Перевод: Профессиональный (полное дублирование) [Чистый звук]
Субтитры: Нет
Описание: Готэму вновь грозит опасность. И на его стражу становится единственный герой, которого заслуживает этот город — Бэтмен, альтер-эго миллиардера Брюса Уэйна, живущего в своем огромном родовом поместье вместе с дворецким Альфредом. Но в этот раз супергерой вынужден взять в напарники парня по имени Дик Грейсон, которого он, сам того не помня, усыновил на одном из светских приемов. Новоиспеченный Робин составит Бэтмену компанию в борьбе с его заклятым врагом Джокером, сбежавшим из психиатрической больницы «Аркхем», а также Харли Куинн, готовой на самые сумасшедшие злодеяния, чтобы оставить в дураках всю «Лигу Справедливости», включая Бэтгерл.

Доп. информация: Релиз с рекламой!
Качество: WEB-DLRip
Продолжительность: 01:45:32
Формат: AVI
Видеокодек: XviD
Аудио кодек: AС3
Видео: 720x304 (2.35:1), 23.976 fps, XviD ~ 1 583 kbps avg, 0.302 bit/pixel
Аудио: AC 3, 48 kHz, 2 ch, ~ 384.00 kbps avg

MInfo

General
Complete name : The.LEGO.Batman.The.Movie.2017.D.WEB-DLRip.14OOMB_KOSHARA.avi
Format : AVI
Format/Info : Audio Video Interleave
File size : 1.46 GiB
Duration : 1 h 45 min
Overall bit rate : 1 976 kb/s
Writing application : VirtualDubMod 1.5.10.2 (build 2540/release)
Writing library : VirtualDubMod build 2540/release
Video
ID : 0
Format : MPEG-4 Visual
Format profile : Advanced Simple@L5
Format settings, BVOP : 2
Format settings, QPel : No
Format settings, GMC : No warppoints
Format settings, Matrix : Default (MPEG)
Codec ID : XVID
Codec ID/Hint : XviD
Duration : 1 h 45 min
Bit rate : 1 583 kb/s
Width : 720 pixels
Height : 304 pixels
Display aspect ratio : 2.35:1
Frame rate : 23.976 (24000/1001) FPS
Color space : YUV
Chroma subsampling : 4:2:0
Bit depth : 8 bits
Scan type : Progressive
Compression mode : Lossy
Bits/(Pixel*Frame) : 0.302
Stream size : 1.17 GiB (80%)
Writing library : XviD 1.2.1 (UTC 2008-12-04)
Audio
ID : 1
Format : AC-3
Format/Info : Audio Coding 3
Format settings, Endianness : Big
Codec ID : 2000
Duration : 1 h 45 min
Bit rate mode : Constant
Bit rate : 384 kb/s
Channel(s) : 2 channels
Channel positions : Front: L R
Sampling rate : 48.0 kHz
Frame rate : 31.250 FPS (1536 spf)
Bit depth : 16 bits
Compression mode : Lossy
Stream size : 290 MiB (19%)
Alignment : Split accross interleaves
Interleave, duration : 42 ms (1.00 video frame)
Interleave, preload duration : 500 ms
Service kind : Complete Main

[Цитировать]



Показать сообщения:    

Текущее время: 21-Ноя 12:20

Часовой пояс: UTC + 6


Вы не можете начинать темы
Вы не можете отвечать на сообщения
Вы не можете редактировать свои сообщения
Вы не можете удалять свои сообщения
Вы не можете голосовать в опросах
Вы не можете прикреплять файлы к сообщениям
Вы не можете скачивать файлы

!ВНИМАНИЕ!
Сайт не предоставляет электронные версии произведений, а занимается лишь коллекционированием и каталогизацией ссылок, присылаемых и публикуемых на форуме нашими читателями. Если вы являетесь правообладателем какого-либо представленного материала и не желаете, чтобы ссылка на него находилась в нашем каталоге, свяжитесь с нами, и мы незамедлительно удалим ее. Файлы для обмена на трекере предоставлены пользователями сайта, и администрация не несет ответственности за их содержание. Просьба не заливать файлы, защищенные авторскими правами, а также файлы нелегального содержания!