[ Сегодня идет свободное скачивание без начисления Download ]


Статистика раздачи
Скачал: [ 6 ]
 
   
 
 
 
 
Основатель / The Founder
Год выпуска: 2016
Страна: США
Производство: Faliro House Productions, FilmNation Entertainment, Speedie Distribution, The Combine, The Weinstein Company LLC
Жанр: Драма, биография, история
Режиссёр: Джон Ли Хэнкок
В ролях: Линда Карделлини, Ник Офферман, Майкл Китон, Патрик Уилсон, Лора Дерн, Джон Кэрролл Линч, Б.Дж. Новак, Кимберли Баттиста, Катрин Дайер, Девон Огден
Перевод: Профессиональный (многоголосый, закадровый) [Jaskier]
Субтитры: Отсутствуют
Описание: Фильм расскажет о жизни Рэя Крока, человека создавшего самую известную в мире сеть ресторанов быстрого обслуживания — McDonald`s.

Качество: BDRip
Продолжительность: 01:55:19
Формат: AVI
Видео кодек: XviD
Аудио кодек: AС3
Видео: 720x304 (2.35:1), 23.976 fps, XviD ~ 1356 kbps avg, 0.258 bit/pixel
Аудио: AC3, 48 kHz, 6 ch, ~ 384.00 kbps avg

MI

General
Complete name                  : The.Founder.2016.BDRip.1.41Gb.P.MegaPeer.avi
Format                         : AVI
Format/Info                    : Audio Video Interleave
File size                      : 1.41 GiB
Duration                       : 1 h 55 min
Overall bit rate               : 1 747 kb/s
Video
ID                             : 0
Format                         : MPEG-4 Visual
Format profile                 : Advanced Simple@L5
Format settings, BVOP          : 1
Format settings, QPel          : No
Format settings, GMC           : No warppoints
Format settings, Matrix        : Custom
Codec ID                       : XVID
Codec ID/Hint                  : XviD
Duration                       : 1 h 55 min
Bit rate                       : 1 356 kb/s
Width                          : 720 pixels
Height                         : 304 pixels
Display aspect ratio           : 2.35:1
Frame rate                     : 23.976 (24000/1001) FPS
Color space                    : YUV
Chroma subsampling             : 4:2:0
Bit depth                      : 8 bits
Scan type                      : Progressive
Compression mode               : Lossy
Bits/(Pixel*Frame)             : 0.258
Stream size                    : 1.09 GiB (78%)
Writing library                : XviD 73
Audio
ID                             : 1
Format                         : AC-3
Format/Info                    : Audio Coding 3
Format settings, Endianness    : Big
Codec ID                       : 2000
Duration                       : 1 h 55 min
Bit rate mode                  : Constant
Bit rate                       : 384 kb/s
Channel(s)                     : 6 channels
Channel positions              : Front: L C R, Side: L R, LFE
Sampling rate                  : 48.0 kHz
Frame rate                     : 31.250 FPS (1536 spf)
Bit depth                      : 16 bits
Compression mode               : Lossy
Stream size                    : 317 MiB (22%)
Alignment                      : Aligned on interleaves
Interleave, duration           : 64  ms (1.53 video frames)
Interleave, preload duration   : 192  ms
Title                          : P
Service kind                   : Complete Main

[Цитировать]



Показать сообщения:    

Текущее время: 25-Сен 23:10

Часовой пояс: UTC + 6


Вы не можете начинать темы
Вы не можете отвечать на сообщения
Вы не можете редактировать свои сообщения
Вы не можете удалять свои сообщения
Вы не можете голосовать в опросах
Вы не можете прикреплять файлы к сообщениям
Вы не можете скачивать файлы

!ВНИМАНИЕ!
Сайт не предоставляет электронные версии произведений, а занимается лишь коллекционированием и каталогизацией ссылок, присылаемых и публикуемых на форуме нашими читателями. Если вы являетесь правообладателем какого-либо представленного материала и не желаете, чтобы ссылка на него находилась в нашем каталоге, свяжитесь с нами, и мы незамедлительно удалим ее. Файлы для обмена на трекере предоставлены пользователями сайта, и администрация не несет ответственности за их содержание. Просьба не заливать файлы, защищенные авторскими правами, а также файлы нелегального содержания!