[ Сегодня идет свободное скачивание без начисления Download ]


Статистика раздачи
Скачал: [ 36 ]
 
   
 
 
 
 
-Босс-молокосос / The Boss Baby
«Прирождённый лидер»
- Год выпуска: 2017
Страна: США
Производство: DreamWorks Animation
Жанр: мультфильм, комедия, семейный-Режиссёр: Том МакГрат
В ролях: Майлз Кристофер Бакши, Алек Болдуин, Эрик Белл мл., Стив Бушеми, Джимми Киммел, Лиза Кудроу, Тоби Магуайр, ВивиЭнн Йи-Перевод: Дублированный [iTunes] + оригинал
Субтитры: нет-Описание: Эта актуальная во все времена история для взрослых и детей рассказывается от лица семилетнего брата новорожденного — фантазера Тима, который ревнует его к родителям. Но главный герой — совсем не простой ребенок, он обладает лидерскими задатками, уже носит деловые костюмы и во всем видит бизнес-задачу.- -Качество: WEB-DL 1080p
Продолжительность: 01:37:53
Навигация по главам: есть
Формат: MKV
Видео: 1916x812 (2.35:1), 23.976 fps, MPEG-4 AVC ~4491 kbps avg, 0.120 bit/pixel
Аудио #1: 48 kHz, AC3 Dolby Digital, 3/2 (L,C,R,l,r) + LFE ch, ~384.00 kbps avg (RUS)
Аудио #2: 48 kHz, AC3 Dolby Digital, 3/2 (L,C,R,l,r) + LFE ch, ~384.00 kbps avg (ENG)-Дата премьеры (мир): 12 марта 2017
Дата премьеры (РФ): 23 марта 2017, «Двадцатый Век Фокс СНГ»

MediaInfo

Общее
Уникальный идентификатор                 : 250068124809595796395390722174751753007 (0xBC215E74DE146D8EA5A2A8B84BBE432F)
Полное имя                               : D:\Для раздачи\The.Boss.Baby.2017.WEB-DL.1080p.ExKinoRay.mkv
Формат                                   : Matroska
Версия формата                           : Version 4 / Version 2
Размер файла                             : 3,60 Гбайт
Продолжительность                        : 1 ч. 37 м.
Общий поток                              : 5259 Кбит/сек
Дата кодирования                         : UTC 2017-05-18 19:58:56
Программа кодирования                    : mkvmerge v11.0.0 ('Alive') 64bit
Библиотека кодирования                   : libebml v1.3.4 + libmatroska v1.4.5
Видео
Идентификатор                            : 1
Формат                                   : AVC
Формат/Информация                        : Advanced Video Codec
Профиль формата                          : High@L4
Параметр CABAC формата                   : Да
Параметр ReFrames формата                : 5 кадров
Идентификатор кодека                     : V_MPEG4/ISO/AVC
Продолжительность                        : 1 ч. 37 м.
Битрейт                                  : 4491 Кбит/сек
Ширина                                   : 1916 пикселей
Высота                                   : 812 пикселей
Соотношение сторон                       : 2,35:1
Режим частоты кадров                     : Постоянный
Частота кадров                           : 23,976 кадра/сек
Цветовое пространство                    : YUV
Субдискретизация насыщенности            : 4:2:0
Битовая глубина                          : 8 бит
Тип развёртки                            : Прогрессивная
Бит/(Пиксели*Кадры)                      : 0.120
Размер потока                            : 3,07 Гбайт (85%)
Язык                                     : English
Default                                  : Да
Forced                                   : Нет
Цветовой диапазон                        : Limited
Основные цвета                           : BT.709
Характеристики трансфера                 : BT.709
Коэффициенты матрицы                     : BT.709
Аудио #1
Идентификатор                            : 2
Формат                                   : AC-3
Формат/Информация                        : Audio Coding 3
Параметр Endianness формата              : Big
Идентификатор кодека                     : A_AC3
Продолжительность                        : 1 ч. 37 м.
Вид битрейта                             : Постоянный
Битрейт                                  : 384 Кбит/сек
Каналы                                   : 6 каналов
Расположение каналов                     : Front: L C R, Side: L R, LFE
Частота                                  : 48,0 КГц
Частота кадров                           : 31,250 кадров/сек (1536 spf)
Битовая глубина                          : 16 бит
Метод сжатия                             : С потерями
Размер потока                            : 268 Мбайт (7%)
Заголовок                                : iTunes
Язык                                     : Russian
ServiceKind/String                       : Complete Main
Default                                  : Да
Forced                                   : Нет
Аудио #2
Идентификатор                            : 3
Формат                                   : AC-3
Формат/Информация                        : Audio Coding 3
Параметр Endianness формата              : Big
Идентификатор кодека                     : A_AC3
Продолжительность                        : 1 ч. 37 м.
Вид битрейта                             : Постоянный
Битрейт                                  : 384 Кбит/сек
Каналы                                   : 6 каналов
Расположение каналов                     : Front: L C R, Side: L R, LFE
Частота                                  : 48,0 КГц
Частота кадров                           : 31,250 кадров/сек (1536 spf)
Битовая глубина                          : 16 бит
Метод сжатия                             : С потерями
Размер потока                            : 268 Мбайт (7%)
Заголовок                                : Original
Язык                                     : English
ServiceKind/String                       : Complete Main
Default                                  : Нет
Forced                                   : Нет
Меню
00:00:00.000                             : en:1
00:03:44.891                             : en:2
00:08:57.286                             : en:3
00:11:44.911                             : en:4
00:14:58.562                             : en:5
00:19:37.215                             : en:6
00:22:51.784                             : en:7
00:28:26.243                             : en:8
00:30:25.111                             : en:9
00:33:44.477                             : en:10
00:36:56.252                             : en:11
00:39:17.351                             : en:12
00:42:34.339                             : en:13
00:46:19.605                             : en:14
00:51:36.713                             : en:15
00:53:24.278                             : en:16
00:56:27.711                             : en:17
00:59:34.397                             : en:18
01:04:02.164                             : en:19
01:08:14.749                             : en:20
01:11:28.901                             : en:21
01:16:24.238                             : en:22
01:23:09.101                             : en:23
01:27:35.951                             : en:24

[Цитировать]



Показать сообщения:    

Текущее время: 25-Сен 23:04

Часовой пояс: UTC + 6


Вы не можете начинать темы
Вы не можете отвечать на сообщения
Вы не можете редактировать свои сообщения
Вы не можете удалять свои сообщения
Вы не можете голосовать в опросах
Вы не можете прикреплять файлы к сообщениям
Вы не можете скачивать файлы

!ВНИМАНИЕ!
Сайт не предоставляет электронные версии произведений, а занимается лишь коллекционированием и каталогизацией ссылок, присылаемых и публикуемых на форуме нашими читателями. Если вы являетесь правообладателем какого-либо представленного материала и не желаете, чтобы ссылка на него находилась в нашем каталоге, свяжитесь с нами, и мы незамедлительно удалим ее. Файлы для обмена на трекере предоставлены пользователями сайта, и администрация не несет ответственности за их содержание. Просьба не заливать файлы, защищенные авторскими правами, а также файлы нелегального содержания!