[ Сегодня идет свободное скачивание без начисления Download ]


Статистика раздачи
Качаю: [ 1 ]
Скачал: [ 44 ]
 
   
 
 
 
 
Районы / Rayoni
«Там, где уличные законы»
Страна: Казахстан
Год выпуска: 2016
Жанр: Драма, криминал
Перевод: Не требуется
Субтитры: Нет
Продолжительность: 01:30:24-Режиссер: Акан Сатаев-В ролях: Тимур Жаксылыков, Акан Сатаев, Эрнар Курмашев, Алия Мендыгожина, Алим Заиров, Роман Вишневский, Эльтерес Нуржанов, Шарип Серик, Нуржигит Калдыбеков-Сюжет фильма: Алма-Ата, 1987 год. Главный герой фильма — 16-летний Арсен, который из пригорода переезжает в центр города и идет в новую школу. В новой школе он заводит дружбу с одноклассниками, активными участниками так называемых «Районовских движений». Вместе с этим, Арсен сталкивается с уличной, подростковой иерархией и насилием. И перед ним встает выбор, стать как все или остаться верным самому себе.- -Формат: AVI
Качество: WEBRip-Видео: кодек: XviD, размер кадра: 688x384, битрейт: 1015 Кбит/сек frame rate: 23,976 кадра/сек
Аудио:язык: Русский, кодек: MP3, число каналов: 2 канала, битрейт: 128 кб/с
-

MI

General
Complete name                  : E:\1\Готовые\Rayoni.2016.WEBRip.by.ImperiaFilm.avi
Format                         : AVI
Format/Info                    : Audio Video Interleave
File size                      : 745 MiB
Duration                       : 1 h 30 min
Overall bit rate               : 1 152 kb/s
Writing application            : VirtualDubMod 1.5.10.3 | www.virtualdub-fr.org || (build 2550/release)
Writing library                : VirtualDubMod build 2550/release
Video
ID                             : 0
Format                         : MPEG-4 Visual
Format profile                 : Advanced Simple@L5
Format settings, BVOP          : 1
Format settings, QPel          : No
Format settings, GMC           : No warppoints
Format settings, Matrix        : Custom
Codec ID                       : XVID
Codec ID/Hint                  : XviD
Duration                       : 1 h 30 min
Bit rate                       : 1 015 kb/s
Width                          : 688 pixels
Height                         : 384 pixels
Display aspect ratio           : 16:9
Frame rate                     : 23.976 (24000/1001) FPS
Original frame rate            : 23.976 (23976/1000) FPS
Color space                    : YUV
Chroma subsampling             : 4:2:0
Bit depth                      : 8 bits
Scan type                      : Progressive
Compression mode               : Lossy
Bits/(Pixel*Frame)             : 0.160
Stream size                    : 656 MiB (88%)
Writing library                : XviD 73
Audio
ID                             : 1
Format                         : MPEG Audio
Format version                 : Version 1
Format profile                 : Layer 3
Codec ID                       : 55
Codec ID/Hint                  : MP3
Duration                       : 1 h 30 min
Bit rate mode                  : Constant
Bit rate                       : 128 kb/s
Channel(s)                     : 2 channels
Sampling rate                  : 48.0 kHz
Compression mode               : Lossy
Stream size                    : 82.8 MiB (11%)
Alignment                      : Aligned on interleaves
Interleave, duration           : 42  ms (1.00 video frame)
Interleave, preload duration   : 504  ms
Writing library                : LAME3.99r
Encoding settings              : -m s -V 4 -q 2 -lowpass 17 -b 128
Скриншоты:

[Цитировать]

Спасибо за труды!

[Цитировать]



Показать сообщения:    

Текущее время: 21-Ноя 04:48

Часовой пояс: UTC + 6


Вы не можете начинать темы
Вы не можете отвечать на сообщения
Вы не можете редактировать свои сообщения
Вы не можете удалять свои сообщения
Вы не можете голосовать в опросах
Вы не можете прикреплять файлы к сообщениям
Вы не можете скачивать файлы

!ВНИМАНИЕ!
Сайт не предоставляет электронные версии произведений, а занимается лишь коллекционированием и каталогизацией ссылок, присылаемых и публикуемых на форуме нашими читателями. Если вы являетесь правообладателем какого-либо представленного материала и не желаете, чтобы ссылка на него находилась в нашем каталоге, свяжитесь с нами, и мы незамедлительно удалим ее. Файлы для обмена на трекере предоставлены пользователями сайта, и администрация не несет ответственности за их содержание. Просьба не заливать файлы, защищенные авторскими правами, а также файлы нелегального содержания!