[ Сегодня идет свободное скачивание без начисления Download ]


Статистика раздачи
Скачал: [ 13 ]
 
   
 
 
 
 
Дары смерти / The Devil's Candy
«Не открывай портал в ад»
Год выпуска: 2015
Страна: США
Производство: Snoot Entertainment
Жанр: Ужасы
Режиссёр: Шон Бирн
В ролях: Итэн Эмбри, Шири Эпплби, Кьяра Гласко, Прюитт Тэйлор Винс, Крэйг Най, Марко Перелья, Орайн Ланда, Милинда Ройер, Дебора Эбботт, Тони Амендола
Перевод: Профессиональный (полное дублирование) [iTunes] + Оригинал (английский)
Субтитры: Отсутствуют
Описание: Художник Джесси с женой и дочерью Зои переезжает в дом своей мечты. Здесь он испытывает небывалое вдохновение, граничащее с одержимостью. Но его новые картины — жуткие и пугающие, они нарисованы благодаря злу, которое живёт в этом доме и требует подношений. А дети — самые желанные для дьявола дары. Очередной избранницей потустороннего становится Зои.

Качество: BDRip
Продолжительность: 01:19:31
Формат: AVI
Видео кодек: XviD
Аудио кодек: AС3
Видео: 720x304 (2.35:1), 23.976 fps, XviD ~ 1675 kbps avg, 0.319 bit/pixel
Аудио#1: AC3, 48 kHz, 6 ch, ~ 384.00 kbps avg | Профессиональный (полное дублирование)[iTunes]
Аудио#2: AC3, 48 kHz, 6 ch, ~ 448.00 kbps avg | Оригинал (английский)
Дата премьеры (мир): 13 сентября 2015
Дата премьеры (РФ): 15 декабря 2016

MI

General
Complete name                  : The Devils Candy.2015.BDRip.1.40Gb.MegaPeer.avi
Format                         : AVI
Format/Info                    : Audio Video Interleave
File size                      : 1.40 GiB
Duration                       : 1 h 19 min
Overall bit rate               : 2 521 kb/s
Writing application            : VirtualDubMod 1.5.10.2 (build 2540/release)
Writing library                : VirtualDubMod build 2540/release
Video
ID                             : 0
Format                         : MPEG-4 Visual
Format profile                 : Advanced Simple@L5
Format settings, BVOP          : 1
Format settings, QPel          : No
Format settings, GMC           : No warppoints
Format settings, Matrix        : Custom
Codec ID                       : XVID
Codec ID/Hint                  : XviD
Duration                       : 1 h 19 min
Bit rate                       : 1 675 kb/s
Width                          : 720 pixels
Height                         : 304 pixels
Display aspect ratio           : 2.35:1
Frame rate                     : 23.976 (24000/1001) FPS
Color space                    : YUV
Chroma subsampling             : 4:2:0
Bit depth                      : 8 bits
Scan type                      : Progressive
Compression mode               : Lossy
Bits/(Pixel*Frame)             : 0.319
Stream size                    : 953 MiB (66%)
Writing library                : XviD 73
Audio #1
ID                             : 1
Format                         : AC-3
Format/Info                    : Audio Coding 3
Format settings, Endianness    : Big
Codec ID                       : 2000
Duration                       : 1 h 19 min
Bit rate mode                  : Constant
Bit rate                       : 384 kb/s
Channel(s)                     : 6 channels
Channel positions              : Front: L C R, Side: L R, LFE
Sampling rate                  : 48.0 kHz
Frame rate                     : 31.250 FPS (1536 spf)
Bit depth                      : 16 bits
Compression mode               : Lossy
Stream size                    : 218 MiB (15%)
Alignment                      : Split accross interleaves
Interleave, duration           : 42  ms (1.00 video frame)
Interleave, preload duration   : 500  ms
Service kind                   : Complete Main
Audio #2
ID                             : 2
Format                         : AC-3
Format/Info                    : Audio Coding 3
Format settings, Endianness    : Big
Codec ID                       : 2000
Duration                       : 1 h 19 min
Bit rate mode                  : Constant
Bit rate                       : 448 kb/s
Channel(s)                     : 6 channels
Channel positions              : Front: L C R, Side: L R, LFE
Sampling rate                  : 48.0 kHz
Frame rate                     : 31.250 FPS (1536 spf)
Bit depth                      : 16 bits
Compression mode               : Lossy
Stream size                    : 255 MiB (18%)
Alignment                      : Split accross interleaves
Interleave, duration           : 42  ms (1.00 video frame)
Interleave, preload duration   : 500  ms
Service kind                   : Complete Main

[Цитировать]



Показать сообщения:    

Текущее время: 21-Ноя 04:56

Часовой пояс: UTC + 6


Вы не можете начинать темы
Вы не можете отвечать на сообщения
Вы не можете редактировать свои сообщения
Вы не можете удалять свои сообщения
Вы не можете голосовать в опросах
Вы не можете прикреплять файлы к сообщениям
Вы не можете скачивать файлы

!ВНИМАНИЕ!
Сайт не предоставляет электронные версии произведений, а занимается лишь коллекционированием и каталогизацией ссылок, присылаемых и публикуемых на форуме нашими читателями. Если вы являетесь правообладателем какого-либо представленного материала и не желаете, чтобы ссылка на него находилась в нашем каталоге, свяжитесь с нами, и мы незамедлительно удалим ее. Файлы для обмена на трекере предоставлены пользователями сайта, и администрация не несет ответственности за их содержание. Просьба не заливать файлы, защищенные авторскими правами, а также файлы нелегального содержания!