[ Сегодня идет свободное скачивание без начисления Download ]


Статистика раздачи
Скачал: [ 17 ]
 
   
 
 
 
 
Мой парень – киллер / Mr. Right
«They make a killer couple»
Год выпуска: 2015
Страна: США
Производство: 3311 Productions, Amasia Entertainment, Circle of Confusion
Жанр: Боевик, мелодрама, комедия
Режиссёр: Пако Кабесас
В ролях: Анна Кендрик, Тим Рот, Сэм Рокуэлл, Энсон Маунт, Джеймс Рэнсон, Ризза, Майкл Эклунд, Луис Да Силва мл., Елена Санчес, Сэм Медина, Венди МакКольм, Келли Коннолли, Мэтт Кук, Пако Кабесас
Перевод: Профессиональный (полное дублирование) [iTunes]
Субтитры: Русские на песни (отдельно)
Описание: Марта застала своего парня за изменой и немного вышла из колеи. И тут она встречает, казалось бы, идеального мужчину. Но её идеал оказывается бывшим киллером, и его прошлое однажды вновь заявляет о себе, причем не самым приятным образом. И едва зародившиеся отношения начинают подвергаться серьёзным испытаниям.

Качество: BDRip
Продолжительность: 01:35:29
Формат: AVI
Видео кодек: XviD
Аудио кодек: AС3
Видео: 720x304 (2.35:1), 23.976 fps, XviD ~ 1733 kbps avg, 0.330 bit/pixel
Аудио: AC3, 48 kHz, 6 ch, ~ 384.00 kbps avg

MI

General
Complete name                  : E:\1\Готовые\Mr.Right.2015.BDRip.1.42Gb.D.MegaPeer\Mr.Right.2015.BDRip.1.42Gb.D.MegaPeer.avi
Format                         : AVI
Format/Info                    : Audio Video Interleave
File size                      : 1.42 GiB
Duration                       : 1 h 35 min
Overall bit rate               : 2 126 kb/s
Writing application            : VirtualDubMod 1.5.10.2 (build 2540/release)
Writing library                : VirtualDubMod build 2540/release
Video
ID                             : 0
Format                         : MPEG-4 Visual
Format profile                 : Advanced Simple@L5
Format settings, BVOP          : 1
Format settings, QPel          : No
Format settings, GMC           : No warppoints
Format settings, Matrix        : Custom
Codec ID                       : XVID
Codec ID/Hint                  : XviD
Duration                       : 1 h 35 min
Bit rate                       : 1 733 kb/s
Width                          : 720 pixels
Height                         : 304 pixels
Display aspect ratio           : 2.35:1
Frame rate                     : 23.976 (24000/1001) FPS
Color space                    : YUV
Chroma subsampling             : 4:2:0
Bit depth                      : 8 bits
Scan type                      : Progressive
Compression mode               : Lossy
Bits/(Pixel*Frame)             : 0.330
Stream size                    : 1.16 GiB (82%)
Writing library                : XviD 73
Audio
ID                             : 1
Format                         : AC-3
Format/Info                    : Audio Coding 3
Format settings, Endianness    : Big
Codec ID                       : 2000
Duration                       : 1 h 35 min
Bit rate mode                  : Constant
Bit rate                       : 384 kb/s
Channel(s)                     : 6 channels
Channel positions              : Front: L C R, Side: L R, LFE
Sampling rate                  : 48.0 kHz
Frame rate                     : 31.250 FPS (1536 spf)
Bit depth                      : 16 bits
Compression mode               : Lossy
Stream size                    : 262 MiB (18%)
Alignment                      : Split accross interleaves
Interleave, duration           : 42  ms (1.00 video frame)
Interleave, preload duration   : 500  ms
Service kind                   : Complete Main

[Цитировать]

Mi1o
Стоит ли посмотреть ? или не стоит время тратить ? Анна Кендрик снимается чисто из-за неё можно посмотреть думаю. да и описание заинтересовал.

[Цитировать]

Wolf_23, рейтинг кинопоиска выше пяти...думаю стоит!

[Цитировать]

Metallica1979
Анна Кендрик, в плохих фильмов не снимается))

[Цитировать]



Показать сообщения:    

Текущее время: 20-Ноя 01:54

Часовой пояс: UTC + 6


Вы не можете начинать темы
Вы не можете отвечать на сообщения
Вы не можете редактировать свои сообщения
Вы не можете удалять свои сообщения
Вы не можете голосовать в опросах
Вы не можете прикреплять файлы к сообщениям
Вы не можете скачивать файлы

!ВНИМАНИЕ!
Сайт не предоставляет электронные версии произведений, а занимается лишь коллекционированием и каталогизацией ссылок, присылаемых и публикуемых на форуме нашими читателями. Если вы являетесь правообладателем какого-либо представленного материала и не желаете, чтобы ссылка на него находилась в нашем каталоге, свяжитесь с нами, и мы незамедлительно удалим ее. Файлы для обмена на трекере предоставлены пользователями сайта, и администрация не несет ответственности за их содержание. Просьба не заливать файлы, защищенные авторскими правами, а также файлы нелегального содержания!