[ Сегодня идет свободное скачивание без начисления Download ]


Статистика раздачи
Нет
 
   
 
Top  
 
 
-Король Нью-Йорка / King of New York - Русское название: Король Нью-Йорка
Оригинальное название: King of New York
Страна: США, Великобритания, Италия
Год выпуска: 1990
Жанр: Боевик, Криминал, Драма-Описание фильма:
Выйдя из тюрьмы, гангстер Фрэнк Уайт объявляет, что берет под свой контроль всю торговлю наркотиками в Нью-Йорке и уничтожит всех, кто встанет на его пути. Нью-Йорк становится ареной кровавых разборок за рынок сбыта наркотиков стоимостью более чем в миллиард долларов.
Фрэнк и его банда, состоящая в основном из черных, методично уничтожает боссов колумбийских, итальянских и китайских группировок. В своей штаб-квартире в роскошных апартаментах отеля Плаза под защитой двух прелестных телохранительниц Фрэнк провозглашает себя королем Нью-Йорка. Полиция, неспособная справиться с Фрэнком, объявляет ему настоящую войну…-Режиссер: Абель Феррара
Актеры: Кристофер Уокен, Дэвид Карузо, Лоуренс Фишборн, Виктор Арго, Уэсли Снайпс, Джанет Джулиан, Джои Чин, Джанкарло Эспозито, Пол Калдерон, Стив Бушеми, Тереза Рэндл, Леонард Л. Томас, Роджер Женвер Смит, Carrie Nygren, Эрнест Абуба, Фрэнк Адонис, Ванесса Энджел-Продолжительность: 01:43:04
Перевод: Профессиональный (многоголосый, закадровый) + Авторский (одноголосый закадровый) Михалев
Субтитры: Нет- -
Рейтинг R - Детям до 17 лет обязательно присутствие родителей-Видеокодек: MPEG-4 AVC/H.264
Битрейт видео: ~4 399 Kbps
Размер кадра: 1280x720p
Качество видео: BDRip 720p-Аудио1: Русский AC3 Dolby Digital, 3/2 (L,C,R,l,r) + LFE ch, ~448.00 kbps avg (Закадровый)
Аудио2: Русский AC3 Dolby Digital, 2 (L,R) ch, ~192.00 kbps avg (Одноголосый)
Аудио3: Английский DTS 6.1 ~1536 Kbps (Оригинал)
-

Знаете ли вы, что...

Полная версия с рейтингом Х имела хронометраж 106 минут.
-

Из книги «3500 кинорецензий»

Сергей Кудрявцев 6.5/10
Криминальная драма
Гангстер Фрэнк Уайт, выйдя из тюрьмы после нескольких лет заключения, соперничает с другими мафиози, отстаивая собственное право называться «королём Нью-Йорка». А также он вступает в конфликт с городской полицией, которой пришлась не по нраву благотворительная деятельность торговца наркотиками, который рассчитывал завоевать доверие людей ради своей политической карьеры. Имея столько противников, долго не проживёшь!
Италоамериканский режиссёр Абел Феррара в начале кинокарьеры специализировался на детективах и криминальных историях, эстетизируя насилие, представляя мир гангстеров и преступников в стилистически щедрой манере, порой не будучи в силах преодолеть банальность и одномерность сюжетов. А итальянский продюсер Аугусто Каминито (он известен ещё и как сценарист-режиссёр) вряд ли желал бы сравнения своего амбициозного проекта со «спагетти-детективами», создаваемыми его соотечественниками с беззастенчивым подражанием американцам. Приглашённый на постановку Феррара, конечно, лучше чувствует жанр гангстерского фильма, искусно творит ирреально-призрачную атмосферу ночного Нью-Йорка (хотя снимались эти сцены, между прочим, на рассвете или на закате). Но всё равно остаётся на уровне коммерческого кино среднего толка — далеко от постмодернистской «новейшей нью-йоркской волны» или же от «высокой классики» Фрэнсиса Форда Копполы и Серджо Леоне.
1990
-

MediaInfo:

General
Complete name : E:\King.Of.New.York.1990.mkv
Format : Matroska
File size : 4.82 GiB
Duration : 1h 43mn
Overall bit rate : 6 682 Kbps
Encoded date : UTC 2009-01-05 07:10:12
Writing application : mkvmerge v2.4.1 ('Use Me') built on Dec 5 2008 18:30:05
Writing library : libebml v0.7.7 + libmatroska v0.8.1
Video
ID : 1
Format : AVC
Format/Info : Advanced Video Codec
Format profile : High@L4.1
Format settings, CABAC : Yes
Format settings, ReFrames : 8 frames
Muxing mode : Container profile=Unknown@4.1
Codec ID : V_MPEG4/ISO/AVC
Duration : 1h 43mn
Bit rate : 4 399 Kbps
Nominal bit rate : 4 528 Kbps
Width : 1 280 pixels
Height : 720 pixels
Display aspect ratio : 16:9
Frame rate : 23.976 fps
Resolution : 8 bits
Colorimetry : 4:2:0
Scan type : Progressive
Bits/(Pixel*Frame) : 0.199
Stream size : 3.17 GiB (66%)
Writing library : x264 core 65 r1057M 5f8a149
Encoding settings : cabac=1 / ref=8 / deblock=1:-3:-3 / analyse=0x3:0x133 / me=umh / subme=9 / psy_rd=1.2:0.0 / mixed_ref=1 / me_range=24 / chroma_me=1 / trellis=2 / 8x8dct=1 / cqm=0 / deadzone=21,11 / chroma_qp_offset=-2 / threads=4 / nr=0 / decimate=1 / mbaff=0 / bframes=4 / b_pyramid=1 / b_adapt=2 / b_bias=0 / direct=3 / wpredb=1 / keyint=250 / keyint_min=25 / scenecut=40(pre) / rc=2pass / bitrate=4528 / ratetol=1.0 / qcomp=0.60 / qpmin=10 / qpmax=51 / qpstep=4 / cplxblur=20.0 / qblur=0.5 / ip_ratio=1.40 / pb_ratio=1.30 / aq=1:0.80
Language : English
Audio #1
ID : 2
Format : AC-3
Format/Info : Audio Coding 3
Codec ID : A_AC3
Duration : 1h 43mn
Bit rate mode : Constant
Bit rate : 448 Kbps
Channel(s) : 6 channels
Channel positions : Front: L C R, Surround: L R, LFE
Sampling rate : 48.0 KHz
Stream size : 331 MiB (7%)
Title : AC3 at 448 kbps
Language : Russian
Audio #2
ID : 3
Format : AC-3
Format/Info : Audio Coding 3
Format profile : Dolby Digital
Codec ID : A_AC3
Duration : 1h 43mn
Bit rate mode : Constant
Bit rate : 192 Kbps
Channel(s) : 2 channels
Channel positions : L R
Sampling rate : 48.0 KHz
Stream size : 142 MiB (3%)
Title : AC3 DD 2.0 at 192 kbps
Language : Russian
Audio #3
ID : 4
Format : DTS
Format/Info : Digital Theater Systems
Format profile : ES
Codec ID : A_DTS
Duration : 1h 43mn
Bit rate mode : Constant
Bit rate : 1 510 Kbps
Channel(s) : 7 channels
Channel positions : Front: L C R, Rear: L C R, LFE
Sampling rate : 48.0 KHz
Resolution : 24 bits
Stream size : 1.09 GiB (23%)
Language : English
-Скриншоты:

[Цитировать]



Показать сообщения:    

Текущее время: 21-Авг 12:40

Часовой пояс: UTC + 6


Вы не можете начинать темы
Вы не можете отвечать на сообщения
Вы не можете редактировать свои сообщения
Вы не можете удалять свои сообщения
Вы не можете голосовать в опросах
Вы не можете прикреплять файлы к сообщениям
Вы не можете скачивать файлы

!ВНИМАНИЕ!
Сайт не предоставляет электронные версии произведений, а занимается лишь коллекционированием и каталогизацией ссылок, присылаемых и публикуемых на форуме нашими читателями. Если вы являетесь правообладателем какого-либо представленного материала и не желаете, чтобы ссылка на него находилась в нашем каталоге, свяжитесь с нами, и мы незамедлительно удалим ее. Файлы для обмена на трекере предоставлены пользователями сайта, и администрация не несет ответственности за их содержание. Просьба не заливать файлы, защищенные авторскими правами, а также файлы нелегального содержания!