[ Сегодня идет свободное скачивание без начисления Download ]


Статистика раздачи
Качаю: [ 1 ]
Скачал: [ 42 ]
 
   
 
 
 
 
-2307: Зимний сон / 2307: Winter's Dream (2016)- Страна: США
Название: 2307: Зимний сон
Оригинальное название: 2307: Winter's Dream
Год выхода: 2 апреля 2016
Жанр: фантастика
Режиссер: Джои Кертис
В ролях: Амар Сидху, Branden Coles, Ариэль Холмс, Келси Уотсон, Энн-Соленн Хатте, Тимоти Ли ДеПрайст, Сторми Хенли, Харвуд Гордон, Джозиа Блэк, Майкл Фостер
О фильме:Действие фильма происходит через 300 лет в будущем в пост-апокалиптическом мире, который полностью замёрз. Солдата отправляют на новое задание - миссию "Зимний Сон", целью которой является отследить и устранить лидера восстания гуманойдов, которых люди когда-то создали в качестве рабов.
Выпущено: США / Good Deed Entertainment
Продолжительность: 01:42:32
Озвучивание: Любительское (многоголосое) ["Синема УС"]
Субтитры: нет
ПРИМЕЧАНИЕ: ПРИСУТСТВУЕТ РЕКЛАМА!
Формат: AVI (XviD)
Качество: HDRip
Видео: 1706 kb/s, 720x304
Аудио: AC3, 192 kb/s (2 ch

MediaInfo:

General
Complete name : E:\2307.Winters.Dream.2016.P.HDRip.14OOMB_KOSHARA.avi
Format : AVI
Format/Info : Audio Video Interleave
File size : 1.37 GiB
Duration : 1 h 42 min
Overall bit rate : 1 908 kb/s
Writing application : VirtualDubMod 1.5.10.2 (build 2540/release)
Writing library : VirtualDubMod build 2540/release
Video
ID : 0
Format : MPEG-4 Visual
Format profile : Advanced Simple@L5
Format settings, BVOP : 2
Format settings, QPel : No
Format settings, GMC : No warppoints
Format settings, Matrix : Default (MPEG)
Codec ID : XVID
Codec ID/Hint : XviD
Duration : 1 h 42 min
Bit rate : 1 632 kb/s
Width : 720 pixels
Height : 304 pixels
Display aspect ratio : 2.35:1
Frame rate : 23.976 (24000/1001) FPS
Color space : YUV
Chroma subsampling : 4:2:0
Bit depth : 8 bits
Scan type : Progressive
Compression mode : Lossy
Bits/(Pixel*Frame) : 0.311
Stream size : 1.17 GiB (86%)
Writing library : XviD 1.2.1 (UTC 2008-12-04)
Audio
ID : 1
Format : AC-3
Format/Info : Audio Coding 3
Format settings, Endianness : Big
Codec ID : 2000
Duration : 1 h 42 min
Bit rate mode : Constant
Bit rate : 192 kb/s
Channel(s) : 2 channels
Channel positions : Front: L R
Sampling rate : 48.0 kHz
Frame rate : 31.250 FPS (1536 spf)
Bit depth : 16 bits
Compression mode : Lossy
Stream size : 141 MiB (10%)
Alignment : Split accross interleaves
Service kind : Complete Main

Скриншоты

[Цитировать]

Топик был перенесен из форума Фантастика в форум Новинки кинопроката 2016
Viktor1952



Показать сообщения:    

Текущее время: 20-Ноя 01:55

Часовой пояс: UTC + 6


Вы не можете начинать темы
Вы не можете отвечать на сообщения
Вы не можете редактировать свои сообщения
Вы не можете удалять свои сообщения
Вы не можете голосовать в опросах
Вы не можете прикреплять файлы к сообщениям
Вы не можете скачивать файлы

!ВНИМАНИЕ!
Сайт не предоставляет электронные версии произведений, а занимается лишь коллекционированием и каталогизацией ссылок, присылаемых и публикуемых на форуме нашими читателями. Если вы являетесь правообладателем какого-либо представленного материала и не желаете, чтобы ссылка на него находилась в нашем каталоге, свяжитесь с нами, и мы незамедлительно удалим ее. Файлы для обмена на трекере предоставлены пользователями сайта, и администрация не несет ответственности за их содержание. Просьба не заливать файлы, защищенные авторскими правами, а также файлы нелегального содержания!