[ Сегодня идет свободное скачивание без начисления Download ]


Статистика раздачи
Скачал: [ 18 ]
 
   
 
 
 
 
Дрон / Drone Год выпуска: 2017
Страна: Канада
Производство: Gold Star Productions Inc., Interlock Capital, Look to the Sky Films
Жанр: Триллер
Режиссёр: Джейсон Бурк
В ролях: Шон Бин, Мэри МакКормак, Джоэль Мур, Патрик Сабонгуй, Шэрон Тейлор, Кирби Морроу, Брэдли Страйкер, Кевин О’Грэйди, Джон Эммет Трэйси, Максвелл Хэйнс
Перевод: Любительский (многоголосый закадровый) [@MUZOBOZ@]
Субтитры: Отсутствуют
Описание: Опытный пилот дрона Нил работает по частному контракту, проводя свои трудовые дни на тайных боевых вылетах, а затем возвращается домой в типичный пригород к ничего не подозревающей семье. Но однажды его секрет раскрывает информационный сайт, выставляя Нила не в лучшем свете. Пакистанский бизнесмен, считающий пилота виновным в смерти жены и ребёнка, начинает его выслеживать, чтобы изощренно отомстить.

Доп. информация: Релиз с рекламой!
Качество: WEB-DLRip
Продолжительность: 01:31:27
Формат: AVI
Видео кодек: XviD
Аудио кодек: AС3
Видео: 720x304 (2.35:1), 23.976 fps, XviD ~ 1 742 kbps avg, 0.332 bit/pixel
Аудио: AC3, 48 kHz, 2 ch, ~ 384.00 kbps avg
Дата премьеры (мир): 26 мая 2017
Дата премьеры (РФ): N/A

MI

General
Complete name                  : Drone.2017.P.WEB-DLRip.14OOMB_KOSHARA.avi
Format                         : AVI
Format/Info                    : Audio Video Interleave
File size                      : 1.36 GiB
Duration                       : 1 h 31 min
Overall bit rate               : 2 135 kb/s
Writing application            : VirtualDubMod 1.5.10.2 (build 2540/release)
Writing library                : VirtualDubMod build 2540/release
Video
ID                             : 0
Format                         : MPEG-4 Visual
Format profile                 : Advanced Simple@L5
Format settings, BVOP          : 2
Format settings, QPel          : No
Format settings, GMC           : No warppoints
Format settings, Matrix        : Default (MPEG)
Codec ID                       : XVID
Codec ID/Hint                  : XviD
Duration                       : 1 h 31 min
Bit rate                       : 1 742 kb/s
Width                          : 720 pixels
Height                         : 304 pixels
Display aspect ratio           : 2.35:1
Frame rate                     : 23.976 (24000/1001) FPS
Color space                    : YUV
Chroma subsampling             : 4:2:0
Bit depth                      : 8 bits
Scan type                      : Progressive
Compression mode               : Lossy
Bits/(Pixel*Frame)             : 0.332
Stream size                    : 1.11 GiB (82%)
Writing library                : XviD 1.2.1 (UTC 2008-12-04)
Audio
ID                             : 1
Format                         : AC-3
Format/Info                    : Audio Coding 3
Format settings, Endianness    : Big
Codec ID                       : 2000
Duration                       : 1 h 31 min
Bit rate mode                  : Constant
Bit rate                       : 384 kb/s
Channel(s)                     : 2 channels
Channel positions              : Front: L R
Sampling rate                  : 48.0 kHz
Frame rate                     : 31.250 FPS (1536 spf)
Bit depth                      : 16 bits
Compression mode               : Lossy
Stream size                    : 251 MiB (18%)
Alignment                      : Split accross interleaves
Interleave, duration           : 42  ms (1.00 video frame)
Interleave, preload duration   : 500  ms
Service kind                   : Complete Main

[Цитировать]



Показать сообщения:    

Текущее время: 26-Сен 02:48

Часовой пояс: UTC + 6


Вы не можете начинать темы
Вы не можете отвечать на сообщения
Вы не можете редактировать свои сообщения
Вы не можете удалять свои сообщения
Вы не можете голосовать в опросах
Вы не можете прикреплять файлы к сообщениям
Вы не можете скачивать файлы

!ВНИМАНИЕ!
Сайт не предоставляет электронные версии произведений, а занимается лишь коллекционированием и каталогизацией ссылок, присылаемых и публикуемых на форуме нашими читателями. Если вы являетесь правообладателем какого-либо представленного материала и не желаете, чтобы ссылка на него находилась в нашем каталоге, свяжитесь с нами, и мы незамедлительно удалим ее. Файлы для обмена на трекере предоставлены пользователями сайта, и администрация не несет ответственности за их содержание. Просьба не заливать файлы, защищенные авторскими правами, а также файлы нелегального содержания!