[ Сегодня идет свободное скачивание без начисления Download ]


Статистика раздачи
Скачал: [ 14 ]
 
   
 
 
 
 
Пороги Оригинальное название: Пороги
Год выпуска: 2015
Жанр: Мелодрама
Выпущено: Россия, Кинокомпания «Русское» по заказу канала "Россия 1"
Режиссер: Юсуп Разыков
В ролях: Никита Тезин, Михаил Гаврилов (II), Пётр Баранчеев, Мария Болонкина, Сергей Юшкевич, Виолетта Давыдовская, Лариса Шахворостова, Иван Рыжиков, Кирилл Гребенщиков, Елена Ан, Сергей Генкин, Егор Баринов, Юлия Кокрятская, Антонина Берёзка, Екатерина Вуличенко, Екатерина Травова, Игорь Пазыч, Константин Тополага, Александр Стефанцов, Руслан Сабиров, Сейдулла Молдаханов, Сергей Петров (II), Александр Лымарев, Александр Крайнов
О фильме: Граница всегда была тем местом, в котором проверялись на прочность человеческий характер и чувства. В такое место попадает молодая девушка в далёких 80-х годах прошлого столетия. Далёкая таёжная застава, на которой живут много людей со сложными характерами и судьбами, своими тайнами и загадками. Ей предстоит пройти трудный путь становления и утверждения себя как личности, обретения друзей. И формировать её будут разные ситуации и люди. Да и сама она не промах. Женщина с сильным характером, знающая себе цену и цену другим...
Качество: WEB-DLRip
Видео: XviD, ~ 1500 Кбит/с, 720х400
Аудио: AC3, 2 ch, 192 Кбит/с
Продолжительность: 16 x ~ 00:44:00
Язык: Русский

Внимание! Раздача ведётся путём добавления новых серий

.Раздача ведётся путём добавления новых серий, при каждом добавлении создаётся новый торрент. Чтобы начать докачку новой серии, пользователям необходимо сделать следующее:
- Остановить скачивание.
- Удалить старый торрент у себя из клиента (старые серии удалять не надо).
- Скачать новый торрент и запустить его у себя в клиенте вместо старого, при этом указать клиенту путь в старую папку куда и должно происходить скачивание новых серий.
Ваш клиент при этом должен произвести хеширование (проверку) старой папки (если не производит сам - помогите ему сделать это), и будет докачивать только те серии которых у вас ещё нет. Старые серии при этом не удаляются, а продолжают раздаваться!
Если вы уже удалили старые серии, то предотвратить повторную закачку старых серий можно, отжав галочку в соответствующих местах при запуске нового торрента. По возможности, желательно не удалять старые серии как можно дольше, чтобы релизер не столько продолжал раздавать старые серии, а смог сконцентрироваться на новых.

MediaInfo:

Общее
Полное имя : D:\моё видио\Porogi.2014.WEB-DLRip.Files-x\01.Porogi.2014.WEB-DLRip.Files-x.avi
Формат : AVI
Формат/Информация : Audio Video Interleave
Размер файла : 550 Мбайт
Продолжительность : 46 м.
Общий поток : 1655 Кбит/сек
Программа кодирования : VirtualDubMod 1.5.10.3 | www.virtualdub-fr.org || (build 2550/release)
Библиотека кодирования : VirtualDubMod build 2550/release
Видео
Идентификатор : 0
Формат : MPEG-4 Visual
Профиль формата : Advanced Simple@L5
Параметр BVOP формата : 1
Параметр QPel формата : Нет
Параметр GMC формата : Без точки перехода
Параметр матрицы формата : Выборочная
Идентификатор кодека : XVID
Идентификатор кодека/Подсказка : XviD
Продолжительность : 46 м.
Битрейт : 1453 Кбит/сек
Ширина : 720 пикселей
Высота : 400 пикселей
Соотношение сторон : 16:9
Частота кадров : 25,000 кадров/сек
Цветовое пространство : YUV
Субдискретизация насыщенности : 4:2:0
Битовая глубина : 8 бит
Тип развёртки : Прогрессивная
Метод сжатия : С потерями
Бит/(Пиксели*Кадры) : 0.202
Размер потока : 483 Мбайт (88%)
Библиотека кодирования : XviD 73
Аудио
Идентификатор : 1
Формат : AC-3
Формат/Информация : Audio Coding 3
Расширение режима : CM (complete main)
Параметр Endianness формата : Big
Идентификатор кодека : 2000
Продолжительность : 46 м.
Вид битрейта : Постоянный
Битрейт : 192 Кбит/сек
Каналы : 2 канала
Расположение каналов : Front: L R
Частота : 48,0 КГц
Битовая глубина : 16 бит
Метод сжатия : С потерями
Размер потока : 63,9 Мбайт (12%)
Выравнивание : Разделение по промежуткам
Продолжительность промежутка : 40 мс. (1,00 видеокадр)
Время предзагрузки промежутка : 500 мс.

Скриншоты

Рекламы нетДобавлены 1-16 серии.
Сериал залит полностью.


Последний раз редактировалось: papa1951deda (2017-05-31 15:47), всего редактировалось 1 раз

[Цитировать]

Добавлены 7-9 серии.

[Цитировать]

Добавлены 10-16 серии.

[Цитировать]



Показать сообщения:    

Текущее время: 20-Окт 09:26

Часовой пояс: UTC + 6


Вы не можете начинать темы
Вы не можете отвечать на сообщения
Вы не можете редактировать свои сообщения
Вы не можете удалять свои сообщения
Вы не можете голосовать в опросах
Вы не можете прикреплять файлы к сообщениям
Вы не можете скачивать файлы

!ВНИМАНИЕ!
Сайт не предоставляет электронные версии произведений, а занимается лишь коллекционированием и каталогизацией ссылок, присылаемых и публикуемых на форуме нашими читателями. Если вы являетесь правообладателем какого-либо представленного материала и не желаете, чтобы ссылка на него находилась в нашем каталоге, свяжитесь с нами, и мы незамедлительно удалим ее. Файлы для обмена на трекере предоставлены пользователями сайта, и администрация не несет ответственности за их содержание. Просьба не заливать файлы, защищенные авторскими правами, а также файлы нелегального содержания!