[ Сегодня идет свободное скачивание без начисления Download ]


Статистика раздачи
Скачал: [ 5 ]
 
   
 
 
 
 
Лекарство от здоровья / A Cure for Wellness (2016) BDRip-AVC- Производство: Германия, США / Blind Wink Productions, New Regency Productions
Жанр: Ужасы, фантастика, триллер, драма, детектив
Режиссер: Гор Вербински
Актеры: Дэйн ДеХаан, Джейсон Айзекс, Миа Гот, Иво Нанди, Адриан Шиллер, Селия Имри, Гарри Гронер, Томас Норстрем, Ашок Манданна, Магнус Креппер
Описание:
Молодой амбициозный сотрудник отправляется в затерянный в швейцарских Альпах оздоровительный центр, чтобы вернуть оттуда руководителя своей компании. Но по прибытии он понимает, что чудодейственные процедуры спа-салона вовсе не те, чем кажутся. В то время как парень начинает распутывать страшные тайны этого места, его здравый ум проходит настоящую проверку на прочность. Похоже, теперь он страдает той же странной болезнью, по причине которой здесь остаются другие гости центра, желающие получить свою дозу лекарства.


Возраст: 18+ (зрителям, достигшим 18 лет. запрещено для детей)
Рейтинг MPAA: R (лицам до 17 лет обязательно присутствие взрослого)
Дата мировой премьеры: 10 декабря 2016
Дата российской премьеры: 30 марта 2017, «Двадцатый Век Фокс СНГ»
Релиз от: R.G. Resident
Продолжительность: 02:26:33
Качество видео: BDRip-AVC [sample]
Перевод: Профессиональный (многоголосый закадровый) ("Paradox" & Omskbird records)
Субтитры: Английские (SDH)
Видео: AVC/H.264, 1024x576 (16:9), ~2171 kbps, 23.976 fps
Аудио: AC3, 2 ch, 192 kbps - Русский
Аудио: AC3, 6 ch, 448 kbps - Английский

MediaInfo

Общее
Уникальный идентификатор : 194584521373605809374596958937937827513 (0x92639D9AC3B4F59F97CD74C099FF56B9)
Полное имя : E:\A.Cure.for.Wellness.2016.BDRip.AVC.R.G.Resident.mkv
Формат : Matroska
Версия формата : Version 4 / Version 2
Размер файла : 2,88 Гбайт
Продолжительность : 2 ч. 26 м.
Общий поток : 2211 Кбит/сек
Название фильма : Лекарство от здоровья (2016) BDRip-AVC от R.G. Resident
Дата кодирования : UTC 2017-06-02 14:08:42
Программа кодирования : mkvmerge v12.0.0 ('Trust / Lust') 64bit
Библиотека кодирования : libebml v1.3.4 + libmatroska v1.4.5
Обложка : Yes
Attachments : cover.jpg
Видео
Идентификатор : 1
Формат : AVC
Формат/Информация : Advanced Video Codec
Профиль формата : High@L4.1
Параметр CABAC формата : Да
Параметр ReFrames формата : 9 кадров
Идентификатор кодека : V_MPEG4/ISO/AVC
Продолжительность : 1 ч. 45 м.
Битрейт : 2171 Кбит/сек
Ширина : 1024 пикселя
Высота : 576 пикселей
Соотношение сторон : 16:9
Режим частоты кадров : Постоянный
Частота кадров : 23,976 (24000/1001) кадра/сек
Цветовое пространство : YUV
Субдискретизация насыщенности : 4:2:0
Битовая глубина : 8 бит
Тип развёртки : Прогрессивная
Бит/(Пиксели*Кадры) : 0.154
Размер потока : 1,61 Гбайт (71%)
Заголовок : -Lexx-
Библиотека кодирования : x264 core 146 r2538 121396c
Настройки программы : cabac=1 / ref=9 / deblock=1:-2:-1 / analyse=0x3:0x113 / me=umh / subme=11 / psy=1 / psy_rd=1.00:0.00 / mixed_ref=1 / me_range=48 / chroma_me=1 / trellis=2 / 8x8dct=1 / cqm=0 / deadzone=21,11 / fast_pskip=0 / chroma_qp_offset=-2 / threads=6 / lookahead_threads=1 / sliced_threads=0 / nr=0 / decimate=0 / interlaced=0 / bluray_compat=0 / constrained_intra=0 / bframes=10 / b_pyramid=2 / b_adapt=2 / b_bias=0 / direct=3 / weightb=1 / open_gop=0 / weightp=2 / keyint=240 / keyint_min=23 / scenecut=40 / intra_refresh=0 / rc_lookahead=40 / rc=2pass / mbtree=0 / bitrate=2171 / ratetol=1.0 / qcomp=0.60 / qpmin=0 / qpmax=69 / qpstep=4 / cplxblur=20.0 / qblur=0.5 / vbv_maxrate=50000 / vbv_bufsize=62500 / nal_hrd=none / filler=0 / ip_ratio=1.40 / pb_ratio=1.30 / aq=1:1.00
Язык : English
Default : Да
Forced : Нет
Аудио #1
Идентификатор : 2
Формат : AC-3
Формат/Информация : Audio Coding 3
Параметр Endianness формата : Big
Идентификатор кодека : A_AC3
Продолжительность : 2 ч. 26 м.
Вид битрейта : Постоянный
Битрейт : 192 Кбит/сек
Каналы : 2 канала
Расположение каналов : Front: L R
Частота : 48,0 КГц
Частота кадров : 31,250 кадров/сек (1536 spf)
Битовая глубина : 16 бит
Метод сжатия : С потерями
Размер потока : 201 Мбайт (9%)
Заголовок : MVO | "Paradox" & Omskbird records
Язык : Russian
ServiceKind/String : Complete Main
Default : Да
Forced : Нет
Аудио #2
Идентификатор : 3
Формат : AC-3
Формат/Информация : Audio Coding 3
Параметр Endianness формата : Big
Идентификатор кодека : A_AC3
Продолжительность : 2 ч. 26 м.
Вид битрейта : Постоянный
Битрейт : 448 Кбит/сек
Каналы : 6 каналов
Расположение каналов : Front: L C R, Side: L R, LFE
Частота : 48,0 КГц
Частота кадров : 31,250 кадров/сек (1536 spf)
Битовая глубина : 16 бит
Метод сжатия : С потерями
Размер потока : 470 Мбайт (20%)
Заголовок : Оригинал
Язык : English
ServiceKind/String : Complete Main
Default : Нет
Forced : Нет
Текст
Идентификатор : 4
Формат : UTF-8
Идентификатор кодека : S_TEXT/UTF8
Идентификатор кодека/Информация : UTF-8 Plain Text
Продолжительность : 2 ч. 20 м.
Битрейт : 37 бит/сек
ElementCount : 1475
Размер потока : 38,4 Кбайт (0%)
Заголовок : SDH
Язык : English
Default : Нет
Forced : Нет
Меню
00:00:00.000 : en: Chapter 1
00:03:37.092 : en: Chapter 2
00:09:18.349 : en: Chapter 3
00:13:22.343 : en: Chapter 4
00:16:55.681 : en: Chapter 5
00:22:49.910 : en: Chapter 6
00:27:42.035 : en: Chapter 7
00:32:01.878 : en: Chapter 8
00:38:23.843 : en: Chapter 9
00:44:51.397 : en: Chapter 10
00:51:22.162 : en: Chapter 11
00:56:50.782 : en: Chapter 12
01:01:31.062 : en: Chapter 13
01:08:08.293 : en: Chapter 14
01:13:12.221 : en: Chapter 15
01:17:02.284 : en: Chapter 16
01:21:08.447 : en: Chapter 17
01:25:17.195 : en: Chapter 18
01:29:20.355 : en: Chapter 19
01:34:59.277 : en: Chapter 20
01:40:19.513 : en: Chapter 21
01:43:49.181 : en: Chapter 22
01:47:46.794 : en: Chapter 23
01:52:30.661 : en: Chapter 24
01:56:30.775 : en: Chapter 25
02:04:22.121 : en: Chapter 26
02:09:17.458 : en: Chapter 27
02:19:59.057 : en: Chapter 28

"Paradox" & Omskbird records

Перевод: Татьяна Масаковская
Роли озвучивали: Павел Ярощик, Деис Строев, Марина Гассан, Маргарита Корш, Максим Максимов, Алексей Никитин
Звукорежиссер: Павел Квентов
Скриншоты:

[Цитировать]



Показать сообщения:    

Текущее время: 26-Сен 09:31

Часовой пояс: UTC + 6


Вы не можете начинать темы
Вы не можете отвечать на сообщения
Вы не можете редактировать свои сообщения
Вы не можете удалять свои сообщения
Вы не можете голосовать в опросах
Вы не можете прикреплять файлы к сообщениям
Вы не можете скачивать файлы

!ВНИМАНИЕ!
Сайт не предоставляет электронные версии произведений, а занимается лишь коллекционированием и каталогизацией ссылок, присылаемых и публикуемых на форуме нашими читателями. Если вы являетесь правообладателем какого-либо представленного материала и не желаете, чтобы ссылка на него находилась в нашем каталоге, свяжитесь с нами, и мы незамедлительно удалим ее. Файлы для обмена на трекере предоставлены пользователями сайта, и администрация не несет ответственности за их содержание. Просьба не заливать файлы, защищенные авторскими правами, а также файлы нелегального содержания!