[ Сегодня идет свободное скачивание без начисления Download ]


Статистика раздачи
Скачал: [ 2 ]
 
   
 
 
 
 
Операция «Меконг» / Mei Gong he xing dong (2016) BDRip-AVC Информация о фильме
Название: Операция «Меконг»
Оригинальное название: Mei Gong he xing dong
Год выпуска: 2016
Жанр: Боевик, приключения
Режиссер: Данте Лам
В ролях: Ханьюй Чжан, Эдди Пэн, Джойс Фэн, Чэнь Баого, У Сюйдун, У Линькай, Чжан Лиго, Сунь Чунь, Лю Сяньда, Оак Кирати
О фильме:
По приказу наркобарона Нау Хара, на реке Меконг были зверски убиты 13 невинных рыбаков. Китай объединяется с соседними странами для устранения этой бандитской группировки...

Выпущено: Китай, Beijing Huaming Xingkong International Media Company, Bona Film Group, Dream Sky Entertainment Company
Продолжительность: 02:03:18
Перевод и озвучка: Любительский одноголосый (BadBajo)
Субтитры: Английские, китайские
Файл
Формат: MKV
Качество: BDRip-AVC
Видео: AVC, 1024х428 (2.40:1), 3152 kbps, 24,000 fps, 0,300 bpp
Аудио 1: 48 kHz, AC3, 5.1, 448 Kbps | RUS |
Аудио 2: 48 kHz, AC3, 5.1, 448 Kbps | CH |
Семпл
Без какой-либо рекламы

MI

x264 [info]: frame I:1443 Avg QP:16.57 size: 83363
x264 [info]: frame P:52713 Avg QP:20.59 size: 28853
x264 [info]: frame B:123413 Avg QP:22.17 size: 10320
----------------------------------------------------------
General
Unique ID : 188745935802072960372792990983399587222 (0x8DFF251C60B525F3927D7C3900EEBD96)
Complete name : D:Operation.Mekong.2016.AVO.BadBajo.BDRip.AVC.ExKinoRay.mkv
Format : Matroska
Format version : Version 2
File size : 3.49 GiB
Duration : 2 h 3 min
Overall bit rate : 4 050 kb/s
Movie name : Operation Mekong (2016) from ExKinoRay
Encoded date : UTC 2017-06-04 15:29:32
Writing application : mkvmerge v5.8.0 ('No Sleep / Pillow') built on Sep 2 2012 15:37:04
Writing library : libebml v1.2.3 + libmatroska v1.3.0
Video
ID : 1
Format : AVC
Format/Info : Advanced Video Codec
Format profile : High@L4.1
Format settings, CABAC : Yes
Format settings, ReFrames : 11 frames
Codec ID : V_MPEG4/ISO/AVC
Duration : 2 h 3 min
Bit rate : 3 152 kb/s
Width : 1 024 pixels
Height : 428 pixels
Display aspect ratio : 2.40:1
Frame rate mode : Constant
Frame rate : 24.000 FPS
Color space : YUV
Chroma subsampling : 4:2:0
Bit depth : 8 bits
Scan type : Progressive
Bits/(Pixel*Frame) : 0.300
Stream size : 2.65 GiB (76%)
Title : Enigma
Writing library : x264 core 144 r2525 40bb568
Encoding settings : cabac=1 / ref=11 / deblock=1:-3:-3 / analyse=0x3:0x113 / me=umh / subme=10 / psy=1 / psy_rd=0.95:0.00 / mixed_ref=1 / me_range=32 / chroma_me=1 / trellis=2 / 8x8dct=1 / cqm=0 / deadzone=21,11 / fast_pskip=1 / chroma_qp_offset=-2 / threads=12 / lookahead_threads=3 / sliced_threads=0 / nr=0 / decimate=0 / interlaced=0 / bluray_compat=0 / constrained_intra=0 / bframes=11 / b_pyramid=2 / b_adapt=2 / b_bias=0 / direct=3 / weightb=1 / open_gop=0 / weightp=2 / keyint=240 / keyint_min=24 / scenecut=40 / intra_refresh=0 / rc_lookahead=40 / rc=2pass / mbtree=0 / bitrate=3152 / ratetol=1.0 / qcomp=0.64 / qpmin=0 / qpmax=51 / qpstep=4 / cplxblur=20.0 / qblur=0.5 / vbv_maxrate=50000 / vbv_bufsize=62500 / nal_hrd=none / filler=0 / ip_ratio=1.40 / pb_ratio=1.30 / aq=3:0.90
Language : English
Default : Yes
Forced : No
Color range : Limited
Color primaries : BT.709
Transfer characteristics : BT.709
Matrix coefficients : BT.709
Audio #1
ID : 2
Format : AC-3
Format/Info : Audio Coding 3
Mode extension : CM (complete main)
Format settings, Endianness : Big
Codec ID : A_AC3
Duration : 2 h 3 min
Bit rate mode : Constant
Bit rate : 448 kb/s
Channel(s) : 6 channels
Channel positions : Front: L C R, Side: L R, LFE
Sampling rate : 48.0 kHz
Frame rate : 31.250 FPS (1536 spf)
Compression mode : Lossy
Stream size : 395 MiB (11%)
Title : AVO (BadBajo)
Language : Russian
Default : Yes
Forced : No
Audio #2
ID : 3
Format : AC-3
Format/Info : Audio Coding 3
Mode extension : CM (complete main)
Format settings, Endianness : Big
Codec ID : A_AC3
Duration : 2 h 3 min
Bit rate mode : Constant
Bit rate : 448 kb/s
Channel(s) : 6 channels
Channel positions : Front: L C R, Side: L R, LFE
Sampling rate : 48.0 kHz
Frame rate : 31.250 FPS (1536 spf)
Compression mode : Lossy
Stream size : 395 MiB (11%)
Language : Chinese
Default : No
Forced : No
Text #1
ID : 4
Format : UTF-8
Codec ID : S_TEXT/UTF8
Codec ID/Info : UTF-8 Plain Text
Language : English
Default : No
Forced : No
Text #2
ID : 5
Format : UTF-8
Codec ID : S_TEXT/UTF8
Codec ID/Info : UTF-8 Plain Text
Language : Chinese
Default : No
Forced : No
Menu
00:00:00.000 : zh:Chapter 01
00:05:47.291 : zh:Chapter 02
00:11:44.333 : zh:Chapter 03
00:16:05.750 : zh:Chapter 04
00:21:17.458 : zh:Chapter 05
00:27:26.958 : zh:Chapter 06
00:33:28.957 : zh:Chapter 07
00:38:11.833 : zh:Chapter 08
00:45:22.291 : zh:Chapter 09
00:51:36.583 : zh:Chapter 10
00:57:21.166 : zh:Chapter 11
01:03:39.583 : zh:Chapter 12
01:10:09.833 : zh:Chapter 13
01:15:29.708 : zh:Chapter 14
01:23:19.750 : zh:Chapter 15
01:27:15.583 : zh:Chapter 16
01:32:47.625 : zh:Chapter 17
01:40:34.622 : zh:Chapter 18
01:46:37.291 : zh:Chapter 19
01:56:08.161 : zh:Chapter 20

Скриншоты:

[Цитировать]



Показать сообщения:    

Текущее время: 21-Ноя 04:48

Часовой пояс: UTC + 6


Вы не можете начинать темы
Вы не можете отвечать на сообщения
Вы не можете редактировать свои сообщения
Вы не можете удалять свои сообщения
Вы не можете голосовать в опросах
Вы не можете прикреплять файлы к сообщениям
Вы не можете скачивать файлы

!ВНИМАНИЕ!
Сайт не предоставляет электронные версии произведений, а занимается лишь коллекционированием и каталогизацией ссылок, присылаемых и публикуемых на форуме нашими читателями. Если вы являетесь правообладателем какого-либо представленного материала и не желаете, чтобы ссылка на него находилась в нашем каталоге, свяжитесь с нами, и мы незамедлительно удалим ее. Файлы для обмена на трекере предоставлены пользователями сайта, и администрация не несет ответственности за их содержание. Просьба не заливать файлы, защищенные авторскими правами, а также файлы нелегального содержания!