[ Сегодня идет свободное скачивание без начисления Download ]


Статистика раздачи
Скачал: [ 6 ]
 
   
 
 
 
 
Бахубали: Завершение / Bahubali 2: The Conclusion Информация о фильме
Название: Бахубали: Завершение
Оригинальное название: Bahubali 2: The Conclusion
Год выпуска: 2017
Жанр: Фэнтези, боевик, драма, приключения
Выпущено: Индия, Arka Mediaworks, Beyond Studio Entertainments VFX
Режиссер: С.С. Раджамули
В ролях: Прабхас, Рана Даггубати, Анушка Шетти, Таманна Бхатия, Сатхьярадж, Рамья Кришна, Нассер, Суббараджу
Описание: Старый Каттаппа рассказывает Шиве, почему убил его отца Амарендру. После того, как тот был усыновлён королевой Шивагами, старший сводный брат Бхаллаладева всегда ему завидовал. Зависть достигла апогея после битвы с дикими племенами, когда Шивагами нарекла младшего сына наследником королевства. Бхаллаладева и его хитрый отец начинают плести грязные интриги, чтобы сжить Амарендру со свету.

Продолжительность: 02:48:04
Перевод: Любительский (многоголосый, закадровый)
Субтитры: Русские (на песни)
Файл
Формат: MKV
Качество: WEB-DLRip-AVC
Видео: AVC, 1024х404 (2.535:1), 2470 kbps, 24,000 fps, 0,249 bpp
Аудио: 48 kHz, AC3, 2.0, 192 Kbps | RUS |

MI

General
Unique ID : 177220350555175023721929148714289906934 (0x855365E299C3F96B849AC3FE2AC6C4F6)
Complete name : D:Bahubali.Zakluchenie.2017.MVO.WEB-DLRip.AVC.ExKinoRay.mkv
Format : Matroska
Format version : Version 2
File size : 3.13 GiB
Duration : 2 h 48 min
Overall bit rate : 2 664 kb/s
Movie name : Bahubali 2: The Conclusion (2017) from ExKinoRay
Encoded date : UTC 2017-06-17 14:10:35
Writing application : mkvmerge v5.6.0 ('Kenya Kane') built on May 27 2012 16:44:04
Writing library : libebml v1.2.3 + libmatroska v1.3.0
Video
ID : 1
Format : AVC
Format/Info : Advanced Video Codec
Format profile : High@L4.1
Format settings, CABAC : Yes
Format settings, ReFrames : 10 frames
Codec ID : V_MPEG4/ISO/AVC
Duration : 2 h 48 min
Bit rate : 2 470 kb/s
Width : 1 024 pixels
Height : 404 pixels
Display aspect ratio : 2.535
Frame rate mode : Constant
Frame rate : 24.000 FPS
Color space : YUV
Chroma subsampling : 4:2:0
Bit depth : 8 bits
Scan type : Progressive
Bits/(Pixel*Frame) : 0.249
Stream size : 2.84 GiB (91%)
Title : Enigma
Writing library : x264 core 144 r2525 40bb568
Encoding settings : cabac=1 / ref=10 / deblock=1:-2:-2 / analyse=0x3:0x113 / me=umh / subme=10 / psy=1 / psy_rd=1.03:0.10 / mixed_ref=1 / me_range=32 / chroma_me=1 / trellis=2 / 8x8dct=1 / cqm=0 / deadzone=21,11 / fast_pskip=1 / chroma_qp_offset=-3 / threads=12 / lookahead_threads=3 / sliced_threads=0 / nr=0 / decimate=0 / interlaced=0 / bluray_compat=0 / constrained_intra=0 / bframes=10 / b_pyramid=2 / b_adapt=2 / b_bias=0 / direct=3 / weightb=1 / open_gop=0 / weightp=2 / keyint=240 / keyint_min=24 / scenecut=40 / intra_refresh=0 / rc_lookahead=40 / rc=2pass / mbtree=0 / bitrate=2470 / ratetol=1.0 / qcomp=0.60 / qpmin=0 / qpmax=51 / qpstep=4 / cplxblur=20.0 / qblur=0.5 / vbv_maxrate=50000 / vbv_bufsize=62500 / nal_hrd=none / filler=0 / ip_ratio=1.40 / pb_ratio=1.30 / aq=1:1.00
Language : English
Default : Yes
Forced : No
Color range : Limited
Color primaries : BT.709
Transfer characteristics : BT.709
Matrix coefficients : BT.709
Audio
ID : 2
Format : AC-3
Format/Info : Audio Coding 3
Mode extension : CM (complete main)
Format settings, Endianness : Big
Codec ID : A_AC3
Duration : 2 h 48 min
Bit rate mode : Constant
Bit rate : 192 kb/s
Channel(s) : 2 channels
Channel positions : Front: L R
Sampling rate : 48.0 kHz
Frame rate : 31.250 FPS (1536 spf)
Compression mode : Lossy
Stream size : 231 MiB (7%)
Title : MVO (Honey&Haseena)
Language : Russian
Default : Yes
Forced : No

Скриншоты

[Цитировать]



Показать сообщения:    

Текущее время: 25-Ноя 02:23

Часовой пояс: UTC + 6


Вы не можете начинать темы
Вы не можете отвечать на сообщения
Вы не можете редактировать свои сообщения
Вы не можете удалять свои сообщения
Вы не можете голосовать в опросах
Вы не можете прикреплять файлы к сообщениям
Вы не можете скачивать файлы

!ВНИМАНИЕ!
Сайт не предоставляет электронные версии произведений, а занимается лишь коллекционированием и каталогизацией ссылок, присылаемых и публикуемых на форуме нашими читателями. Если вы являетесь правообладателем какого-либо представленного материала и не желаете, чтобы ссылка на него находилась в нашем каталоге, свяжитесь с нами, и мы незамедлительно удалим ее. Файлы для обмена на трекере предоставлены пользователями сайта, и администрация не несет ответственности за их содержание. Просьба не заливать файлы, защищенные авторскими правами, а также файлы нелегального содержания!