[ Сегодня идет свободное скачивание без начисления Download ]


Статистика раздачи
Скачал: [ 7 ]
 
   
 
Top  
 
 
Любовь с ограничениями- Год выпуска: 2016
Страна: Россия
Производство: «Art Pictures Studio», «ВайТ Медиа»
Жанр: комедия, мелодрама-Режиссёр: Дмитрий Тюрин-В ролях: Павел Прилучный, Анна Старшенбаум, Илья Глинников, Алексей Чадов, Алексей Воробьёв, Кирилл Плетнёв, Сергей Кутергин, Тимур Боканча, Ксения Иванова, Павел Шевандо-Перевод: Не требуется (русский) [Лицензия]
Субтитры: нет-Описание: Однажды самый обычный парень Миша узнает об указе Президента России, по которому в крупных компаниях должно работать два процента людей с ограниченными возможностями. И тут в его «светлую» голову приходит идея, как воплотить свою давнюю мечту о богатой и беззаботной жизни. Не долго думая, Миша получает фиктивные медицинские документы, садится в коляску и едет на собеседование, и не куда-нибудь, а в сам «Нашгаз»! И, о чудо, им как раз не хватает одного человека до той самой квоты. Жизнь удалась! Престижная работа, большая зарплата, отличная квартира, весь мир открыт для него, только есть одно «но», одно маленькое ограничение — он должен постоянно быть в инвалидном кресле! И не просто быть в нем, он при этом еще не должен «спалиться».- -Качество: BDRip | Blu-ray RUS 1080p |
Продолжительность: 01:42:38
Навигация по главам: есть-Формат: MKV
Видео: 984x412 (2.40:1), 24 fps, MPEG4-AVC ~1589 kbps avg, 0.16 bit/pixel
Аудио: 48 kHz, AC3 Dolby Digital, 3/2 (L,C,R,l,r) + LFE ch, ~448 kbps avg-Дата премьеры (РФ): 9 марта 2017, «Централ Партнершип»

Тех. инфо

Общее
Уникальный идентификатор                 : 247624639890563441864835561842670763654 (0xBA4AC55943FB28E2803A3A207A62FE86)
Полное имя                               : D:\Для раздачи\Lubov.s.Ogranicheniyami.2016.RUS.BDRip.x264.-HELLYWOOD.mkv
Формат                                   : Matroska
Версия формата                           : Version 4 / Version 2
Размер файла                             : 1,46 Гбайт
Продолжительность                        : 1 ч. 42 м.
Общий поток                              : 2038 Кбит/сек
Название фильма                          : Любовь с ограничениями (2016)
Дата кодирования                         : UTC 2017-06-18 05:14:54
Программа кодирования                    : mkvmerge v5.9.0 ('On The Loose') built on Dec 15 2012 16:39:58
Библиотека кодирования                   : libebml v1.3.0 + libmatroska v1.4.0
Видео
Идентификатор                            : 1
Формат                                   : AVC
Формат/Информация                        : Advanced Video Codec
Профиль формата                          : High@L4.1
Параметр CABAC формата                   : Да
Параметр ReFrames формата                : 12 кадров
Идентификатор кодека                     : V_MPEG4/ISO/AVC
Продолжительность                        : 1 ч. 42 м.
Битрейт                                  : 1589 Кбит/сек
Ширина                                   : 984 пикселя
Высота                                   : 412 пикселей
Соотношение сторон                       : 2,40:1
Режим частоты кадров                     : Постоянный
Частота кадров                           : 24,000 кадра/сек
Цветовое пространство                    : YUV
Субдискретизация насыщенности            : 4:2:0
Битовая глубина                          : 8 бит
Тип развёртки                            : Прогрессивная
Бит/(Пиксели*Кадры)                      : 0.163
Размер потока                            : 1,11 Гбайт (76%)
Заголовок                                : potroks
Библиотека кодирования                   : x264 core 146 r2538 121396c
Настройки программы                      : cabac=1 / ref=12 / deblock=1:-2:-2 / analyse=0x3:0x113 / me=umh / subme=11 / psy=1 / psy_rd=1.00:0.06 / mixed_ref=1 / me_range=48 / chroma_me=1 / trellis=2 / 8x8dct=1 / cqm=0 / deadzone=21,11 / fast_pskip=0 / chroma_qp_offset=-3 / threads=9 / lookahead_threads=2 / sliced_threads=0 / nr=0 / decimate=0 / interlaced=0 / bluray_compat=0 / constrained_intra=0 / bframes=13 / b_pyramid=2 / b_adapt=2 / b_bias=0 / direct=3 / weightb=1 / open_gop=0 / weightp=2 / keyint=240 / keyint_min=23 / scenecut=40 / intra_refresh=0 / rc_lookahead=60 / rc=2pass / mbtree=0 / bitrate=1589 / ratetol=1.0 / qcomp=0.70 / qpmin=0 / qpmax=69 / qpstep=4 / cplxblur=20.0 / qblur=0.5 / vbv_maxrate=14000 / vbv_bufsize=14000 / nal_hrd=none / filler=0 / ip_ratio=1.35 / pb_ratio=1.25 / aq=1:0.80
Язык                                     : Russian
Default                                  : Да
Forced                                   : Нет
Аудио
Идентификатор                            : 2
Формат                                   : AC-3
Формат/Информация                        : Audio Coding 3
Параметр Endianness формата              : Big
Идентификатор кодека                     : A_AC3
Продолжительность                        : 1 ч. 42 м.
Вид битрейта                             : Постоянный
Битрейт                                  : 448 Кбит/сек
Каналы                                   : 6 каналов
Расположение каналов                     : Front: L C R, Side: L R, LFE
Частота                                  : 48,0 КГц
Частота кадров                           : 31,250 кадров/сек (1536 spf)
Битовая глубина                          : 16 бит
Метод сжатия                             : С потерями
Размер потока                            : 329 Мбайт (22%)
Заголовок                                : DD 5.1 @ 448 kbps - Blu-ray RUS
Язык                                     : Russian
ServiceKind/String                       : Complete Main
Default                                  : Да
Forced                                   : Нет
Меню
00:00:00.000                             : en:(01)00:00:00:000
00:02:32.250                             : en:(02)00:02:32:250
00:13:15.791                             : en:(03)00:13:15:791
00:27:14.291                             : en:(04)00:27:14:291
00:37:00.291                             : en:(05)00:37:00:291
00:48:26.291                             : en:(06)00:48:26:291
01:02:44.833                             : en:(07)01:02:44:833
01:14:13.541                             : en:(08)01:14:13:541
01:28:06.583                             : en:(09)01:28:06:583

Скриншоты

[Цитировать]



Показать сообщения:    

Текущее время: 20-Авг 10:03

Часовой пояс: UTC + 6


Вы не можете начинать темы
Вы не можете отвечать на сообщения
Вы не можете редактировать свои сообщения
Вы не можете удалять свои сообщения
Вы не можете голосовать в опросах
Вы не можете прикреплять файлы к сообщениям
Вы не можете скачивать файлы

!ВНИМАНИЕ!
Сайт не предоставляет электронные версии произведений, а занимается лишь коллекционированием и каталогизацией ссылок, присылаемых и публикуемых на форуме нашими читателями. Если вы являетесь правообладателем какого-либо представленного материала и не желаете, чтобы ссылка на него находилась в нашем каталоге, свяжитесь с нами, и мы незамедлительно удалим ее. Файлы для обмена на трекере предоставлены пользователями сайта, и администрация не несет ответственности за их содержание. Просьба не заливать файлы, защищенные авторскими правами, а также файлы нелегального содержания!