[ Сегодня идет свободное скачивание без начисления Download ]


Статистика раздачи
Нет
 
   
 
Top  
 
 
-[sh]Предатель[/sh] -Страна: Россия
Студия: Форвард-фильм
Жанр: боевик, триллер, криминал, детектив
Год выпуска: 2012
Дата выхода DVD: 11 октября 2012, «Компания WWW.RECORDS»
Продолжительность: 550 мин.
Перевод: Оригинал [Лицензия]
Cубтитры: нет
Оригинальная аудиодорожка: русский-Режиссер: Станислав Титаренко-В ролях: Роман Полянский, Артур Литвинов, Сергей Колос, Андрей Зибров, Дмитрий Сутырин, Яков Шамшин, Елена Радевич, Валерий Полетаев, Антонис Шаманиди, Станислав Никольский, Анатолий Журавин, Денис Синявский, Анна Арефьева, Максим Головчанов, Владимир Артёмов, Максим Студеновский, Юлия Молчанова, Олег Куликович, Михаил Касапов, Александр Клемантович, Валентин Захаров, Валентин Кузнецов, Андрей Гульнев, Любовь Завадская, Михаил Самочко, Татьяна Верховская, Андрей Родимов, Кира Кауфман-Описание: Когда-то опер из управления по борьбе с наркотиками Игорь Ребров пришел на работу с благими намерениями, но окружающий быт и условия сильно на него повлияли. Когда вокруг все зарабатывают деньги, трудно остаться белой вороной. И Игорь становится «как все»: крышует торговцев, решает вопросы для коммерсантов, организует передачу взяток и помогает рейдерам. Однажды Игоря просят посодействовать в освобождении преступного авторитета. Для решения вопроса он договаривается о своем включении в следственную бригаду. Главным следователем по этому делу оказывается очень принципиальная молодая девушка Ольга Баренцева. С ней нельзя договориться. Она ничего не боится. Игорю приходится действовать осторожно и мягко, втираясь к ней в доверие. В какой-то момент Игорь поймёт, что эта девушка для него много значит — и далеко не только по работе. Судьба поставит его перед выбором. Какой выбор сделает Игорь?-Бонусы: нет- -Качество: DVD9 R5
Формат: DVD-Video
Видео кодек: MPEG2
Аудио кодек: AC3
Видео: PAL 16:9 (352x576)(0.913)) MPEG Video, 25,000 кадр/сек, 4628 Кбит/сек
Аудио: Russian (Dolby AC3, 2 ch) 96,0 Кбит/сек, 48,0 КГц--

DVDInfo

Title: Predatel.2012.DVD9
Size: 6.84 Gb ( 7 169 830,00 KBytes ) - DVD-9
Enabled regions: 1, 2, 3, 4, 5, 6, 7, 8
VTS_01 :
Play Length: 00:49:01+00:46:00+00:46:00+00:46:00+00:46:00+00:42:36+00:46:00+00:46:05+00:46:00+00:46:00+00:46:00+00:46:23
Video: PAL 16:9 (352x576) VBR, Auto Letterboxed
Audio:
English (Dolby AC3, 2 ch)
* Menus Information *
VIDEO_TS Menu
Video:
PAL 16:9 (720x576) VBR
Auto Letterboxed
Audio:
Not specified (Dolby AC3, 2 ch)
English Language Unit :
Title Menu
VTS_01 Menu
Video:
PAL 16:9 (720x576) VBR
Auto Letterboxed
Audio:
Not specified (Dolby AC3, 2 ch)
English Language Unit :
Root Menu

MediaInfo

Общее
Полное имя : J:\Новинки 2012\Predatel.2012.DVD9\VIDEO_TS\VTS_01_1.VOB
Формат : MPEG-PS
Размер файла : 1024 Мбайт
Продолжительность : 29 м.
Режим общего битрейта : Переменный
Общий поток : 4820 Кбит/сек
Видео
Идентификатор : 224 (0xE0)
Формат : MPEG Video
Версия формата : Version 2
Профиль формата : Main@Main
Параметр BVOP формата : Да
Параметр матрицы формата : По умолчанию
Параметр GOP формата : Variable
Продолжительность : 29 м.
Вид битрейта : Переменный
Битрейт : 4628 Кбит/сек
Ширина : 352 пикселя
Высота : 576 пикселей
Соотношение сторон : 16:9
Частота кадров : 25,000 кадров/сек
Стандарт вещания : PAL
Цветовое пространство : YUV
Субдискретизация насыщенности : 4:2:0
Битовая глубина : 8 бит
Тип развёртки : Прогрессивная
Метод сжатия : С потерями
Бит/(Пиксели*Кадры) : 0.913
Размер потока : 983 Мбайт (96%)
Аудио
Идентификатор : 189 (0xBD)-128 (0x80)
Формат : AC-3
Формат/Информация : Audio Coding 3
Расширение режима : CM (complete main)
Параметр Endianness формата : Big
Режим смешивания : DVD-Video
Продолжительность : 29 м.
Вид битрейта : Постоянный
Битрейт : 96,0 Кбит/сек
Каналы : 2 канала
Расположение каналов : Front: L R
Частота : 48,0 КГц
Битовая глубина : 16 бит
Метод сжатия : С потерями
Задержка видео : -40 мс.
Размер потока : 20,4 Мбайт (2%)

Скриншоты меню

Скриншоты сериала


-
-Раздача от группы:

[Цитировать]

Топик был перенесен из форума Отечественные сериалы в форум Архив
D-r Woland_kz



Показать сообщения:    

Текущее время: 21-Авг 01:24

Часовой пояс: UTC + 6


Вы не можете начинать темы
Вы не можете отвечать на сообщения
Вы не можете редактировать свои сообщения
Вы не можете удалять свои сообщения
Вы не можете голосовать в опросах
Вы не можете прикреплять файлы к сообщениям
Вы не можете скачивать файлы

!ВНИМАНИЕ!
Сайт не предоставляет электронные версии произведений, а занимается лишь коллекционированием и каталогизацией ссылок, присылаемых и публикуемых на форуме нашими читателями. Если вы являетесь правообладателем какого-либо представленного материала и не желаете, чтобы ссылка на него находилась в нашем каталоге, свяжитесь с нами, и мы незамедлительно удалим ее. Файлы для обмена на трекере предоставлены пользователями сайта, и администрация не несет ответственности за их содержание. Просьба не заливать файлы, защищенные авторскими правами, а также файлы нелегального содержания!