[ Сегодня идет свободное скачивание без начисления Download ]


Статистика раздачи
Качаю: [ 2 ]
Скачал: [ 22 ]
 
   
 
 
 
 
Затерянный город Z / The Lost City of Z (2016) WEB-DLRip-AVC Год выпуска: 2016
Страна: США
Производство: Keep Your Head, MadRiver Pictures, MICA Entertainment
Жанр: Боевик, драма, приключения, биография, история
Режиссёр: Джеймс Грэй
В ролях: Чарли Ханнэм, Сиенна Миллер, Роберт Паттинсон, Том Холланд (II), Эдвард Эшли, Энгус Макфадьен, Иен МакДермид, Клайв Фрэнсис, Педро Коэльо, Мэтью Сандерлэнд
Перевод: Дублированный | iTunes
Субтитры: Нет
Реклама: Нет
Описание: Эльдорадо, таинственная столица инков, загадочный Город Z… Вымысел или реальность? В 1925 году экспедиция полковника Фоссета, члена Королевского Географического общества, бесследно исчезла в джунглях Амазонии в поисках Города Z…

Качество: WEB-DLRip-AVC
Продолжительность: 02:10:38
Формат: MKV
Видео кодек: MPEG-4 AVC
Аудио кодек: AC3
Видео: 720x304 (2.40:1), 23,976 fps, x264 ~1164 kbps avg, 0.213 bit/pixel
Аудио: 48 kHz, AC3 Dolby Digital, 3/2 (L,C,R,l,r) + LFE ch, ~384.00 kbps avg | RUS (iTunes)
Дата премьеры (мир): 15 октября 2016
Дата премьеры (РФ): 27 апреля 2017, «Парадиз»

MediaInfo

Общее
Уникальный идентификатор : 227462347078526825381237028444644829208 (0xAB1FA790522D3453BF99FAB8242BE818)
Полное имя : D:The.Lost.City.of.Z.2016.WEB-DLRip(AVC).OlLanDGroup.mkv
Формат : Matroska
Версия формата : Version 2
Размер файла : 1,46 Гбайт
Продолжительность : 2 ч. 14 м.
Общий поток : 1549 Кбит/сек
Название фильма : The.Lost.City.of.Z.2016 #TorpedoUK#
Дата кодирования : UTC 2017-06-20 15:36:58
Программа кодирования : mkvmerge v7.8.0 ('River Man') 32bit built on Apr 3 2015 12:11:22
Библиотека кодирования : libebml v1.3.1 + libmatroska v1.4.2
Видео
Идентификатор : 1
Формат : AVC
Формат/Информация : Advanced Video Codec
Профиль формата : High@L4.1
Параметр CABAC формата : Да
Параметр ReFrames формата : 10 кадров
Идентификатор кодека : V_MPEG4/ISO/AVC
Продолжительность : 2 ч. 14 м.
Битрейт : 1164 Кбит/сек
Ширина : 720 пикселей
Высота : 304 пикселя
Соотношение сторон : 2,35:1
Режим частоты кадров : Постоянный
Частота кадров : 25,000 кадров/сек
Цветовое пространство : YUV
Субдискретизация насыщенности : 4:2:0
Битовая глубина : 8 бит
Тип развёртки : Прогрессивная
Бит/(Пиксели*Кадры) : 0.213
Размер потока : 1,07 Гбайт (73%)
Библиотека кодирования : x264 core 146 r2538 121396c
Настройки программы : cabac=1 / ref=10 / deblock=1:-3:-3 / analyse=0x3:0x133 / me=umh / subme=11 / psy=1 / psy_rd=1.00:0.07 / mixed_ref=1 / me_range=48 / chroma_me=1 / trellis=2 / 8x8dct=1 / cqm=0 / deadzone=21,11 / fast_pskip=0 / chroma_qp_offset=-3 / threads=6 / lookahead_threads=1 / sliced_threads=0 / nr=0 / decimate=0 / interlaced=0 / bluray_compat=0 / constrained_intra=0 / bframes=10 / b_pyramid=2 / b_adapt=2 / b_bias=0 / direct=3 / weightb=1 / open_gop=0 / weightp=2 / keyint=250 / keyint_min=25 / scenecut=40 / intra_refresh=0 / rc_lookahead=40 / rc=2pass / mbtree=0 / bitrate=1164 / ratetol=1.0 / qcomp=0.60 / qpmin=0 / qpmax=69 / qpstep=4 / cplxblur=20.0 / qblur=0.5 / vbv_maxrate=50000 / vbv_bufsize=62500 / nal_hrd=none / filler=0 / ip_ratio=1.40 / pb_ratio=1.30 / aq=1:1.00
Default : Да
Forced : Нет
Аудио
Идентификатор : 2
Формат : AC-3
Формат/Информация : Audio Coding 3
Расширение режима : CM (complete main)
Параметр Endianness формата : Big
Идентификатор кодека : A_AC3
Продолжительность : 2 ч. 14 м.
Вид битрейта : Постоянный
Битрейт : 384 Кбит/сек
Каналы : 6 каналов
Расположение каналов : Front: L C R, Side: L R, LFE
Частота : 48,0 КГц
Частота кадров : 31,250 кадров/сек (1536 spf)
Битовая глубина : 16 бит
Метод сжатия : С потерями
Размер потока : 371 Мбайт (25%)
Default : Да
Forced : Нет
Меню
00:00:00.000 : en:Chapter 01
00:07:40.240 : en:Chapter 02
00:14:33.680 : en:Chapter 03
00:19:50.680 : en:Chapter 04
00:25:42.320 : en:Chapter 05
00:31:17.120 : en:Chapter 06
00:35:51.200 : en:Chapter 07
00:42:47.600 : en:Chapter 08
00:47:13.560 : en:Chapter 09
00:55:41.360 : en:Chapter 10
01:01:43.320 : en:Chapter 11
01:07:54.720 : en:Chapter 12
01:14:15.160 : en:Chapter 13
01:19:22.200 : en:Chapter 14
01:26:38.960 : en:Chapter 15
01:35:19.999 : en:Chapter 16
01:42:32.759 : en:Chapter 17
01:48:52.319 : en:Chapter 18
01:53:46.799 : en:Chapter 19
02:02:57.439 : en:Chapter 20

Скриншоты



[Цитировать]



Показать сообщения:    

Текущее время: 21-Ноя 04:40

Часовой пояс: UTC + 6


Вы не можете начинать темы
Вы не можете отвечать на сообщения
Вы не можете редактировать свои сообщения
Вы не можете удалять свои сообщения
Вы не можете голосовать в опросах
Вы не можете прикреплять файлы к сообщениям
Вы не можете скачивать файлы

!ВНИМАНИЕ!
Сайт не предоставляет электронные версии произведений, а занимается лишь коллекционированием и каталогизацией ссылок, присылаемых и публикуемых на форуме нашими читателями. Если вы являетесь правообладателем какого-либо представленного материала и не желаете, чтобы ссылка на него находилась в нашем каталоге, свяжитесь с нами, и мы незамедлительно удалим ее. Файлы для обмена на трекере предоставлены пользователями сайта, и администрация не несет ответственности за их содержание. Просьба не заливать файлы, защищенные авторскими правами, а также файлы нелегального содержания!