[ Сегодня идет свободное скачивание без начисления Download ]


Статистика раздачи
Скачал: [ 3 ]
 
   
 
 
 
 
Невеста Бадринатха / Badrinath Ki Dulhania (2017) HDRip-AVC Информация о фильме
Название: Невеста Бадринатха
Оригинальное название: Badrinath Ki Dulhania
Год выпуска: 2017
Жанр: Комедия, мелодрама
Режиссер: Шашанк Кхайтан
В ролях: Варун Дхаван, Алия Бхатт, Сахил Ваид, Сукмани Ламба
Описание: Бадринатх Бансал – сын крупного деревенского бизнесмена. Он мечтает жениться на хорошей девушке и свить с ней семейное гнёздышко. На свадьбе друга он встречает строптивую Вайдехи. Парень влюбляется в неё с первого взгляда, и сразу же предлагает ей свою руку и сердце. Однако, в планы девушки не входит замужество и она даёт влюблённому парню от ворот поворот. Но Бадринатх не из тех, кто легко сдаётся. Он решает, во что бы то ни стало, добиться сердца красавицы…


Страна: Индия
Студия: Dharma Productions
Продолжительность: 02:19:21
Перевод: Любительский многоголосый [HONEY&HASEENA]
Субтитры: Английские
Файл
Формат: MKV
Качество: HDRip-AVC
Видео: AVC, 1024х434 (2.35:1), 1917 kbps, 24,000 fps, 0,180 bpp
Аудио 1: 48 kHz, AC3, 5.1, 448 Kbps | RUS |
Аудио 2: 48 kHz, AC3, 5.1, 384 Kbps | Hindi |
Семпл
Озвучка: Андрей Стакионис, Давид Петросян и Маргарита Сахно (спасибо!)
Фильм переведён и озвучен по специальному заказу Селены Шелестовой

MI

General
Unique ID : 189057133383725244977839211724715636186 (0x8E3B145612BD4E4DBCB3E5AD5928B5DA)
Complete name : D:Badrinath.Ki.Dulhania.2017.P.HDRip.AVC.ExKinoRay.mkv
Format : Matroska
Format version : Version 2
File size : 2.68 GiB
Duration : 2 h 19 min
Overall bit rate : 2 750 kb/s
Movie name : Badrinath Ki Dulhania (2017) from ExKinoRay
Encoded date : UTC 2017-06-15 04:00:33
Writing application : mkvmerge v5.6.0 ('Kenya Kane') built on May 27 2012 16:44:04
Writing library : libebml v1.2.3 + libmatroska v1.3.0
Video
ID : 1
Format : AVC
Format/Info : Advanced Video Codec
Format profile : High@L4.1
Format settings, CABAC : Yes
Format settings, ReFrames : 11 frames
Codec ID : V_MPEG4/ISO/AVC
Duration : 2 h 19 min
Bit rate : 1 917 kb/s
Width : 1 024 pixels
Height : 434 pixels
Display aspect ratio : 2.35:1
Frame rate mode : Constant
Frame rate : 24.000 FPS
Color space : YUV
Chroma subsampling : 4:2:0
Bit depth : 8 bits
Scan type : Progressive
Bits/(Pixel*Frame) : 0.180
Stream size : 1.81 GiB (68%)
Title : Enigma
Writing library : x264 core 144 r2525 40bb568
Encoding settings : cabac=1 / ref=11 / deblock=1:-2:-2 / analyse=0x3:0x113 / me=umh / subme=10 / psy=1 / psy_rd=1.00:0.07 / mixed_ref=1 / me_range=32 / chroma_me=1 / trellis=2 / 8x8dct=1 / cqm=0 / deadzone=21,11 / fast_pskip=1 / chroma_qp_offset=-3 / threads=12 / lookahead_threads=2 / sliced_threads=0 / nr=0 / decimate=0 / interlaced=0 / bluray_compat=0 / constrained_intra=0 / bframes=9 / b_pyramid=2 / b_adapt=2 / b_bias=0 / direct=3 / weightb=1 / open_gop=0 / weightp=2 / keyint=240 / keyint_min=24 / scenecut=40 / intra_refresh=0 / rc_lookahead=40 / rc=2pass / mbtree=0 / bitrate=1917 / ratetol=1.0 / qcomp=0.60 / qpmin=0 / qpmax=51 / qpstep=4 / cplxblur=20.0 / qblur=0.5 / vbv_maxrate=50000 / vbv_bufsize=62500 / nal_hrd=none / filler=0 / ip_ratio=1.40 / pb_ratio=1.30 / aq=1:1.00
Default : Yes
Forced : No
Color range : Limited
Color primaries : BT.709
Transfer characteristics : BT.709
Matrix coefficients : BT.709
Audio #1
ID : 2
Format : AC-3
Format/Info : Audio Coding 3
Mode extension : CM (complete main)
Format settings, Endianness : Big
Codec ID : A_AC3
Duration : 2 h 19 min
Bit rate mode : Constant
Bit rate : 448 kb/s
Channel(s) : 6 channels
Channel positions : Front: L C R, Side: L R, LFE
Sampling rate : 48.0 kHz
Frame rate : 31.250 FPS (1536 spf)
Compression mode : Lossy
Stream size : 447 MiB (16%)
Title : MVO (HONEY&HASEENA)
Language : Russian
Default : Yes
Forced : No
Audio #2
ID : 3
Format : AC-3
Format/Info : Audio Coding 3
Mode extension : CM (complete main)
Format settings, Endianness : Big
Codec ID : A_AC3
Duration : 2 h 19 min
Bit rate mode : Constant
Bit rate : 384 kb/s
Channel(s) : 6 channels
Channel positions : Front: L C R, Side: L R, LFE
Sampling rate : 48.0 kHz
Frame rate : 31.250 FPS (1536 spf)
Compression mode : Lossy
Stream size : 383 MiB (14%)
Language : Hindi
Default : No
Forced : No
Text
ID : 4
Format : UTF-8
Codec ID : S_TEXT/UTF8
Codec ID/Info : UTF-8 Plain Text
Language : English
Default : No
Forced : No

[Цитировать]



Показать сообщения:    

Текущее время: 25-Ноя 02:26

Часовой пояс: UTC + 6


Вы не можете начинать темы
Вы не можете отвечать на сообщения
Вы не можете редактировать свои сообщения
Вы не можете удалять свои сообщения
Вы не можете голосовать в опросах
Вы не можете прикреплять файлы к сообщениям
Вы не можете скачивать файлы

!ВНИМАНИЕ!
Сайт не предоставляет электронные версии произведений, а занимается лишь коллекционированием и каталогизацией ссылок, присылаемых и публикуемых на форуме нашими читателями. Если вы являетесь правообладателем какого-либо представленного материала и не желаете, чтобы ссылка на него находилась в нашем каталоге, свяжитесь с нами, и мы незамедлительно удалим ее. Файлы для обмена на трекере предоставлены пользователями сайта, и администрация не несет ответственности за их содержание. Просьба не заливать файлы, защищенные авторскими правами, а также файлы нелегального содержания!