[ Сегодня идет свободное скачивание без начисления Download ]


Статистика раздачи
Скачал: [ 11 ]
 
   
 
 
 
 
Жизнь Кабачка / Ma vie de Courgette (2016) Информация о фильме
Название: Жизнь Кабачка
Оригинальное название: Ma vie de Courgette
Год выпуска: 2016
Страна: Швейцария, Франция
Жанр: мультфильм, семейный, драма-Перевод: Профессиональный многоголосый [iTunes]
Продолжительность: 01:05:49-Режиссер: Клод Баррас
В ролях: Gaspard Schlatter (Courgette, озвучка), Sixtine Murat (Camille, озвучка), Полин Жаккуд (Simon, озвучка), Мишель Вюйермоз (Raymond, озвучка), Raul Ribera (Ahmed, озвучка), Estelle Hennard (Alice, озвучка), Elliot Sanchez (Jujube, озвучка), Lou Wick (Béatrice, озвучка), Бриджитт Россет (Tante Ida, озвучка), Наташа Кучумов (Courgette's Mother, озвучка), Моника Будде (Mme Papineau, озвучка), Adrien Barazzone (Mr. Paul, озвучка)-Описание:
Кабачок - вовсе не овощ, так зовут маленького мальчика. Его мама погибла, и он остался во всем мире совсем один и совсем не знает, как и с кем ему жить дальше. Симон, Ахмед, Жужубе, Алиса и Беатрис - новые друзья Кабачка, которых он встречает в приюте для детей. Там же он впервые влюбится, в особенную, очаровательную Камиллу.-Рейтинг:

MPAA: PG-13 - Детям до 13 лет просмотр не желателен-Качество: BDRip 720p
Формат: MKV
Видео: AVC, 1280x720 (16:9), 2897 kbps, 23,976 fps, 0,131 bpp
Аудио №1: русский / AC3 / 5.1 / 48 kHz / 384 kbps /
Аудио №2: французский / DTS / 5.1 / 48 kHz / 1509 kbps / 24 bit
Навигация по главам: есть-

ОтчетМедиаИнфо

x264 [info]: frame I:645 Avg QP:14.21 size:148167
x264 [info]: frame P:20743 Avg QP:17.66 size: 33702
x264 [info]: frame B:73309 Avg QP:18.93 size: 8624
General
Unique ID : 247218261212192503747378455991531211388 (0xB9FC81553B73CC1B8ED28D2A17820A7C)
Complete name : D:downloadMa.vie.de.Courgette.2016.BDRip 720p by schultz R.G.Resident.mkv
Format : Matroska
Format version : Version 4 / Version 2
File size : 2.20 GiB
Duration : 1 h 5 min
Overall bit rate : 4 786 kb/s
Encoded date : UTC 2017-06-24 03:46:09
Writing application : mkvmerge v8.9.0 ('Father Daughter') 64bit
Writing library : libebml v1.3.3 + libmatroska v1.4.4
Video
ID : 1
Format : AVC
Format/Info : Advanced Video Codec
Format profile : High@L4.1
Format settings, CABAC : Yes
Format settings, ReFrames : 11 frames
Codec ID : V_MPEG4/ISO/AVC
Duration : 1 h 5 min
Bit rate : 2 897 kb/s
Width : 1 280 pixels
Height : 720 pixels
Display aspect ratio : 16:9
Frame rate mode : Constant
Frame rate : 23.976 (23976/1000) FPS
Color space : YUV
Chroma subsampling : 4:2:0
Bit depth : 8 bits
Scan type : Progressive
Bits/(Pixel*Frame) : 0.131
Stream size : 1.33 GiB (60%)
Writing library : x264 core 146 r2538 121396c
Encoding settings : cabac=1 / ref=11 / deblock=1:-3:-3 / analyse=0x3:0x113 / me=umh / subme=11 / psy=1 / psy_rd=1.00:0.15 / mixed_ref=1 / me_range=48 / chroma_me=1 / trellis=2 / 8x8dct=1 / cqm=0 / deadzone=21,11 / fast_pskip=0 / chroma_qp_offset=-3 / threads=12 / lookahead_threads=3 / sliced_threads=0 / nr=0 / decimate=0 / interlaced=0 / bluray_compat=0 / constrained_intra=0 / bframes=10 / b_pyramid=2 / b_adapt=2 / b_bias=0 / direct=3 / weightb=1 / open_gop=0 / weightp=2 / keyint=240 / keyint_min=23 / scenecut=40 / intra_refresh=0 / rc_lookahead=40 / rc=2pass / mbtree=0 / bitrate=2897 / ratetol=1.0 / qcomp=0.60 / qpmin=0 / qpmax=69 / qpstep=4 / cplxblur=20.0 / qblur=0.5 / vbv_maxrate=50000 / vbv_bufsize=62500 / nal_hrd=none / filler=0 / ip_ratio=1.40 / pb_ratio=1.30 / aq=1:1.00
Language : English
Default : Yes
Forced : No
Color range : Limited
Color primaries : BT.709
Transfer characteristics : BT.709
Matrix coefficients : BT.709
Audio #1
ID : 2
Format : AC-3
Format/Info : Audio Coding 3
Mode extension : CM (complete main)
Format settings, Endianness : Big
Codec ID : A_AC3
Duration : 1 h 5 min
Bit rate mode : Constant
Bit rate : 384 kb/s
Channel(s) : 6 channels
Channel positions : Front: L C R, Side: L R, LFE
Sampling rate : 48.0 kHz
Frame rate : 31.250 FPS (1536 spf)
Compression mode : Lossy
Stream size : 181 MiB (8%)
Language : Russian
Default : Yes
Forced : No
Audio #2
ID : 3
Format : DTS
Format/Info : Digital Theater Systems
Mode : 16
Format settings, Endianness : Big
Codec ID : A_DTS
Duration : 1 h 5 min
Bit rate mode : Constant
Bit rate : 1 509 kb/s
Channel(s) : 6 channels
Channel positions : Front: L C R, Side: L R, LFE
Sampling rate : 48.0 kHz
Frame rate : 93.750 FPS (512 spf)
Bit depth : 24 bits
Compression mode : Lossy
Stream size : 710 MiB (32%)
Language : French
Default : No
Forced : No
Menu
00:00:00.000 : en:00:00:00.000
00:05:51.351 : en:00:05:51.351
00:10:59.659 : en:00:10:59.659
00:15:27.927 : en:00:15:27.927
00:21:54.313 : en:00:21:54.313
00:28:12.691 : en:00:28:12.691
00:32:16.935 : en:00:32:16.935
00:38:43.321 : en:00:38:43.321
00:44:34.672 : en:00:44:34.672
00:49:52.990 : en:00:49:52.990
00:55:34.331 : en:00:55:34.331
00:59:57.594 : en:00:59:57.594

Скриншоты

[Цитировать]

семпл

[Цитировать]



Показать сообщения:    

Текущее время: 24-Сен 03:56

Часовой пояс: UTC + 6


Вы не можете начинать темы
Вы не можете отвечать на сообщения
Вы не можете редактировать свои сообщения
Вы не можете удалять свои сообщения
Вы не можете голосовать в опросах
Вы не можете прикреплять файлы к сообщениям
Вы не можете скачивать файлы

!ВНИМАНИЕ!
Сайт не предоставляет электронные версии произведений, а занимается лишь коллекционированием и каталогизацией ссылок, присылаемых и публикуемых на форуме нашими читателями. Если вы являетесь правообладателем какого-либо представленного материала и не желаете, чтобы ссылка на него находилась в нашем каталоге, свяжитесь с нами, и мы незамедлительно удалим ее. Файлы для обмена на трекере предоставлены пользователями сайта, и администрация не несет ответственности за их содержание. Просьба не заливать файлы, защищенные авторскими правами, а также файлы нелегального содержания!