[ Сегодня идет свободное скачивание без начисления Download ]


Статистика раздачи
Скачал: [ 3 ]
 
   
 
 
 
 
Голая правда / The Ugly Truth (2009) BDRip-AVC - Производство: США
Жанр: Мелодрама, Комедия
Режиссер: Роберт Лукетич
Актеры: Кэтрин Хайгл, Джерард Батлер, Бри Тёрнер, Эрик Винтер, Ник Сирси, Джесси Д. Гойнс, Шерил Хайнс, Джон Майкл Хиггинс, Ной Мэтьюз, Бонни Соммервиль
Описание:
Он — восходящая звезда нового телешоу, и его жизненное кредо — «секс, наркотики и рок-н-ролл», он совсем не признает равенство полов, политкорректность и так далее… В общем, настоящий мачо.

Возраст: 16+ (зрителям, достигшим 16 лет)
Рейтинг MPAA: R (лицам до 17 лет обязательно присутствие взрослого)
Продолжительность: 01:35:57
Качество видео: BDRip-AVC [sample_]
Перевод: Дублированный
Субтитры: Отсутствуют
Видео: HEVC/H.265, 1920x800, ~23.976 fps, 5905 Kbps
Аудио: Русский, AC3, 6 ch, 640 Kbps, 48,0 KHz

Mediainfo:

Общее
Уникальный идентификатор : 171334394350405952902682950519026916988 (0x80E5CDD6C39ACCE0B234012C001C9E7C)
Полное имя : J:\ФИЛЬМЫ\The Ugly Truth (2009) BDRip 1080p [HEVC].mkv
Формат : Matroska
Версия формата : Version 4 / Version 2
Размер файла : 4,39 Гбайт
Продолжительность : 1 ч. 35 м.
Общий поток : 6546 Кбит/сек
Название фильма : UGLY_TRUTH__THE.Title1801
Дата кодирования : UTC 2017-06-22 19:44:52
Программа кодирования : mkvmerge v12.0.0 ('Trust / Lust') 64bit
Библиотека кодирования : libebml v1.3.4 + libmatroska v1.4.5
Обложка : Yes
DURATION : 01:35:57.760000000
NUMBER_OF_FRAMES : 179930
NUMBER_OF_BYTES : 460620800
_STATISTICS_WRITING_APP : mkvmerge v12.0.0 ('Trust / Lust') 64bit
_STATISTICS_WRITING_DATE_UTC : 2017-06-22 19:44:52
_STATISTICS_TAGS : BPS DURATION NUMBER_OF_FRAMES NUMBER_OF_BYTES
Видео
Идентификатор : 1
Формат : HEVC
Формат/Информация : High Efficiency Video Coding
Профиль формата : Main@L5.0
Идентификатор кодека : V_MPEGH/ISO/HEVC
Продолжительность : 1 ч. 35 м.
Битрейт : 5775 Кбит/сек
Ширина : 1920 пикселей
Высота : 800 пикселей
Соотношение сторон : 2,40:1
Режим частоты кадров : Постоянный
Частота кадров : 23,976 кадра/сек
Цветовое пространство : YUV
Субдискретизация насыщенности : 4:2:0
Битовая глубина : 8 бит
Бит/(Пиксели*Кадры) : 0.157
Размер потока : 3,87 Гбайт (88%)
Default : Да
Forced : Нет
Аудио
Идентификатор : 2
Формат : AC-3
Формат/Информация : Audio Coding 3
Расширение режима : CM (complete main)
Параметр Endianness формата : Big
Идентификатор кодека : A_AC3
Продолжительность : 1 ч. 35 м.
Вид битрейта : Постоянный
Битрейт : 640 Кбит/сек
Каналы : 6 каналов
Расположение каналов : Front: L C R, Side: L R, LFE
Частота : 48,0 КГц
Битовая глубина : 16 бит
Метод сжатия : С потерями
Размер потока : 439 Мбайт (10%)
Язык : Russian
Default : Да
Forced : Нет
Меню
00:00:00.000 : en:(01)00:00:00:000
00:06:24.592 : en:(02)00:06:24:592
00:12:32.209 : en:(03)00:12:32:209
00:15:56.330 : en:(04)00:15:56:330
00:20:12.419 : en:(05)00:20:12:419
00:26:04.646 : en:(06)00:26:04:646
00:32:02.712 : en:(07)00:32:02:712
00:36:48.789 : en:(08)00:36:48:789
00:41:46.128 : en:(09)00:41:46:128
00:49:25.003 : en:(10)00:49:25:003
00:56:43.358 : en:(11)00:56:43:358
01:02:33.374 : en:(12)01:02:33:374
01:08:01.660 : en:(13)01:08:01:660
01:12:52.659 : en:(14)01:12:52:659
01:18:49.683 : en:(15)01:18:49:683
01:23:04.187 : en:(16)01:23:04:187
Скриншоты:

[Цитировать]



Показать сообщения:    

Текущее время: 24-Сен 01:59

Часовой пояс: UTC + 6


Вы не можете начинать темы
Вы не можете отвечать на сообщения
Вы не можете редактировать свои сообщения
Вы не можете удалять свои сообщения
Вы не можете голосовать в опросах
Вы не можете прикреплять файлы к сообщениям
Вы не можете скачивать файлы

!ВНИМАНИЕ!
Сайт не предоставляет электронные версии произведений, а занимается лишь коллекционированием и каталогизацией ссылок, присылаемых и публикуемых на форуме нашими читателями. Если вы являетесь правообладателем какого-либо представленного материала и не желаете, чтобы ссылка на него находилась в нашем каталоге, свяжитесь с нами, и мы незамедлительно удалим ее. Файлы для обмена на трекере предоставлены пользователями сайта, и администрация не несет ответственности за их содержание. Просьба не заливать файлы, защищенные авторскими правами, а также файлы нелегального содержания!