[ Сегодня идет свободное скачивание без начисления Download ]


Статистика раздачи
Скачал: [ 1 ]
 
   
 
 
 
 
Вечеринка мертвых 2: Книга теней / Kopusu pati: Book of Shadows / Corpse Party: Book of Shadows (2016) BDRip 720p Информация о фильме
Название: Вечеринка мертвых 2: Книга теней
Оригинальное название: Kopusu pati: Book of Shadows / Corpse Party: Book of Shadows
Год выхода: 2016
Жанр: Ужасы
Режиссер: Масафуми Ямада
В ролях: Цунэнори Аоки, Рёсукэ Икэока, Рина Икома, Рэн Исикава, Чжун, Ёко Кита, Нозоми Маеда, Атом Мизуиси
О фильме:
Чтобы вернуть своих мертвых друзей, школьница Наоми Накашима вместе со своей подругой Аюми вновь отправляются в потусторонний мир Школы Теншин. Сестра Шинозаки узнает о существовании некой книги теней и отправляется на поиски сестры.
Официальный сайт
Страна: Япония
Студия: Y&N Brothers
Продолжительность: 01:27:14
Перевод: Любительский двухголосый [den904&DeadSno] по субтитрам akira9
РЕЛИЗ БЕЗ РЕКЛАМЫ!
Файл
Кодек: x264
Качество: BDRip 720p
Видео: MPEG-4 AVC, 5910 Кбит/с, 1280x720, 23.976 кадр/с
Звук:
Аудио#1: Russian AC3, 48.0 khz, 2 ch, 192 kbps - DVO, [den904&DeadSno]
Аудио#2: Japanese AC3, 48.0 khz, 2 ch, 640 kbps - Оригинал (японский)
Субтитры: Китайские (упрощенные), китайские (традиционные)

MediaInfo

General
Unique ID : 252080540781114739822323251177132888224 (0xBDA4F2396D54F6C0A3E90EE93F3390A0)
Complete name : I:Corpse.Party.Book.of.Shadows.2016.L2.BDRip.720p.x264.Rus.Jpn.mkv
Format : Matroska
Format version : Version 4 / Version 2
File size : 4.11 GiB
Duration : 1 h 27 min
Overall bit rate : 6 741 kb/s
Encoded date : UTC 2017-06-27 11:32:19
Writing application : mkvmerge v8.3.0 ('Over the Horizon') 32bit
Writing library : libebml v1.3.1 + libmatroska v1.4.2
Attachments : poster_1.jpg / poster_2.jpg
Video
ID : 1
Format : AVC
Format/Info : Advanced Video Codec
Format profile : High@L4.1
Format settings, CABAC : Yes
Format settings, ReFrames : 9 frames
Codec ID : V_MPEG4/ISO/AVC
Duration : 1 h 27 min
Bit rate : 5 910 kb/s
Width : 1 280 pixels
Height : 720 pixels
Display aspect ratio : 16:9
Frame rate mode : Constant
Frame rate : 23.976 (24000/1001) FPS
Color space : YUV
Chroma subsampling : 4:2:0
Bit depth : 8 bits
Scan type : Progressive
Bits/(Pixel*Frame) : 0.267
Stream size : 3.60 GiB (88%)
Writing library : x264 core 129 r2245+704+36 8e61944 tMod+MixAQ [8-bit@4:2:0 X86_64]
Encoding settings : cabac=1 / ref=9 / deblock=1:-3:-3 / analyse=0x3:0x133 / me=umh / subme=11 / psy=1 / fade_compensate=0.00 / psy_rd=1.05:0.10 / mixed_ref=1 / me_range=32 / chroma_me=1 / trellis=2 / 8x8dct=1 / cqm=0 / deadzone=21,11 / fast_pskip=0 / chroma_qp_offset=-3 / threads=18 / lookahead_threads=3 / sliced_threads=0 / nr=0 / decimate=0 / interlaced=0 / bluray_compat=0 / constrained_intra=0 / fgo=0 / bframes=10 / b_pyramid=2 / b_adapt=2 / b_bias=0 / direct=3 / weightb=1 / open_gop=0 / weightp=2 / keyint=250 / keyint_min=23 / scenecut=40 / intra_refresh=0 / rc=2pass / mbtree=0 / bitrate=5910 / ratetol=1.0 / qcomp=0.70 / qpmin=0 / qpmax=69 / qpstep=4 / cplxblur=20.0 / qblur=0.5 / ip_ratio=1.40 / pb_ratio=1.30 / aq=1 / aq-strength=0.85 / aq-sensitivity=10.00 / aq-ifactor=1.00 / aq-pfactor=1.00 / aq-bfactor=1.00 / aq2=0
Language : Japanese
Default : Yes
Forced : No
Audio #1
ID : 2
Format : AC-3
Format/Info : Audio Coding 3
Format settings, Endianness : Big
Codec ID : A_AC3
Duration : 1 h 27 min
Bit rate mode : Constant
Bit rate : 192 kb/s
Channel(s) : 2 channels
Channel positions : Front: L R
Sampling rate : 48.0 kHz
Frame rate : 31.250 FPS (1536 spf)
Bit depth : 16 bits
Compression mode : Lossy
Stream size : 120 MiB (3%)
Title : Любительский двухголосый [den904&DeadSno]
Language : Russian
Service kind : Complete Main
Default : Yes
Forced : No
Audio #2
ID : 3
Format : AC-3
Format/Info : Audio Coding 3
Format settings, Endianness : Big
Codec ID : A_AC3
Duration : 1 h 27 min
Bit rate mode : Constant
Bit rate : 640 kb/s
Channel(s) : 2 channels
Channel positions : Front: L R
Sampling rate : 48.0 kHz
Frame rate : 31.250 FPS (1536 spf)
Bit depth : 16 bits
Compression mode : Lossy
Stream size : 399 MiB (9%)
Title : Original
Language : Japanese
Service kind : Complete Main
Default : No
Forced : No
Text #1
ID : 4
Format : ASS
Codec ID : S_TEXT/ASS
Codec ID/Info : Advanced Sub Station Alpha
Duration : 1 h 26 min
Bit rate : 36 b/s
Count of elements : 620
Compression mode : Lossless
Stream size : 23.1 KiB (0%)
Title : Simplified
Language : Chinese
Default : No
Forced : No
Text #2
ID : 5
Format : ASS
Codec ID : S_TEXT/ASS
Codec ID/Info : Advanced Sub Station Alpha
Duration : 1 h 26 min
Bit rate : 36 b/s
Count of elements : 620
Compression mode : Lossless
Stream size : 23.1 KiB (0%)
Title : Traditional
Language : Chinese
Default : No
Forced : No
Menu
00:00:00.000 : en:00:00:00.000
00:14:34.373 : en:00:14:34.373
00:22:35.312 : en:00:22:35.312
00:34:29.108 : en:00:34:29.108
00:40:49.738 : en:00:40:49.738
00:51:41.056 : en:00:51:41.056
00:59:26.563 : en:00:59:26.563
01:13:18.185 : en:01:13:18.185

Скриншоты

[Цитировать]



Показать сообщения:    

Текущее время: 23-Ноя 04:03

Часовой пояс: UTC + 6


Вы не можете начинать темы
Вы не можете отвечать на сообщения
Вы не можете редактировать свои сообщения
Вы не можете удалять свои сообщения
Вы не можете голосовать в опросах
Вы не можете прикреплять файлы к сообщениям
Вы не можете скачивать файлы

!ВНИМАНИЕ!
Сайт не предоставляет электронные версии произведений, а занимается лишь коллекционированием и каталогизацией ссылок, присылаемых и публикуемых на форуме нашими читателями. Если вы являетесь правообладателем какого-либо представленного материала и не желаете, чтобы ссылка на него находилась в нашем каталоге, свяжитесь с нами, и мы незамедлительно удалим ее. Файлы для обмена на трекере предоставлены пользователями сайта, и администрация не несет ответственности за их содержание. Просьба не заливать файлы, защищенные авторскими правами, а также файлы нелегального содержания!