[ Сегодня идет свободное скачивание без начисления Download ]


Статистика раздачи
Качаю: [ 1 ]
Скачал: [ 7 ]
 
   
 
 
 
 
Американские боги | American Gods Год выпуска: 2017
Страна: США
Жанр: Фэнтези, детектив, драма
Продолжительность: ~01:00:00
Перевод: Профессиональный (дублированный) Студия «Нота»
Режиссёр: Дэвид Слэйд
В ролях: Рики Уиттл, Эмили Браунинг, Криспин Гловер, Брюс Лэнгли, Йетиде Бадаки, Пабло Шрайбер, Иэн Макшейн и др.
Описание: Главный герой сериала «Американские боги», Тень - человек с очень темным и замысловатым прошлым. У него есть жена, и единственное, о чем мечтает главный персонаж - это о тихой и спокойной жизни со своей любимой женщиной, вдали от всевозможных проблем.
Только мечтам Тени не суждено сбыться, так как в скором времени он узнает, что его супруга погибла при ужасной катастрофе. Горе убивает главного героя. Тот отправляется на самолете домой на похороны любимой, и тут настигает самолет ужасный шторм. Все пассажиры в панике.
К Тени обращается с соседнего кресла какой-то незнакомец, который представляется, как мистер Среда. Этот таинственный незнакомец, как оказалось, слишком много знает о Тени. И после этого мистер Среда также добавляет, что грядет еще более ужасающий шторм, после которого они уже никогда не будут такими, какими были в прошлой жизни…
Релиз от
Работа со звуком: Plazik
Сэмпл: http://multi-up.com/1152449
Качество: WEBRip
Формат: AVI
Видео: XVID, 720x400 (16:9), 23.976 fps, 2000 kbps avg, 0.29 bit/pixel
Аудио Rus: AC3 Dolby Digital, 48.0 KHz, 6 channels, 384 kbps avg
Аудио Eng: AC3 Dolby Digital, 48.0 KHz, 6 channels, 384 kbps avg
Субтитры: Rus
Реклама отстувует!

MediaInfo

General
Complete name : D:\Сериалы\American.Gods.S01E01.Rus.Eng.CasStudio\American.Gods.S01E01.WEBRip.Rus.Eng.CasStudio.avi
Format : AVI
Format/Info : Audio Video Interleave
File size : 1.24 GiB
Duration : 1 h 2 min
Overall bit rate : 2 836 kb/s
Writing application : VirtualDubMod 1.5.10.3 | www.virtualdub-fr.org || (build 2550/release)
Writing library : VirtualDubMod build 2550/release
Video
ID : 0
Format : MPEG-4 Visual
Format profile : Advanced Simple@L5
Format settings, BVOP : 2
Format settings, QPel : No
Format settings, GMC : No warppoints
Format settings, Matrix : Default (MPEG)
Codec ID : XVID
Codec ID/Hint : XviD
Duration : 1 h 2 min
Bit rate : 2 054 kb/s
Width : 720 pixels
Height : 400 pixels
Display aspect ratio : 16:9
Frame rate : 23.976 (24000/1001) FPS
Color space : YUV
Chroma subsampling : 4:2:0
Bit depth : 8 bits
Scan type : Progressive
Compression mode : Lossy
Bits/(Pixel*Frame) : 0.297
Stream size : 923 MiB (72%)
Writing library : XviD 1.2.1 (UTC 2008-12-04)
Audio #1
ID : 1
Format : AC-3
Format/Info : Audio Coding 3
Mode extension : CM (complete main)
Format settings, Endianness : Big
Codec ID : 2000
Duration : 1 h 2 min
Bit rate mode : Constant
Bit rate : 384 kb/s
Channel(s) : 6 channels
Channel positions : Front: L C R, Side: L R, LFE
Sampling rate : 48.0 kHz
Frame rate : 31.250 FPS (1536 spf)
Bit depth : 16 bits
Compression mode : Lossy
Stream size : 173 MiB (14%)
Alignment : Split accross interleaves
Interleave, duration : 42 ms (1.00 video frame)
Interleave, preload duratio : 500 ms

Audio #2

ID : 2
Format : AC-3
Format/Info : Audio Coding 3
Mode extension : CM (complete main)
Format settings, Endianness : Big
Codec ID : 2000
Duration : 1 h 2 min
Bit rate mode : Constant
Bit rate : 384 kb/s
Channel(s) : 6 channels
Channel positions : Front: L C R, Side: L R, LFE
Sampling rate : 48.0 kHz
Frame rate : 31.250 FPS (1536 spf)
Bit depth : 16 bits
Compression mode : Lossy
Stream size : 173 MiB (14%)
Alignment : Split accross interleaves
Interleave, duration : 42 ms (1.00 video frame)
Interleave, preload duratio : 500 ms

Скриншоты

Ссылка на предыдущие и альтернативные раздачи

http://rutracker.org/forum/tracker.php?f=189,2366,842,235&nm=American+Gods

[Цитировать]



Показать сообщения:    

Текущее время: 25-Ноя 02:17

Часовой пояс: UTC + 6


Вы не можете начинать темы
Вы не можете отвечать на сообщения
Вы не можете редактировать свои сообщения
Вы не можете удалять свои сообщения
Вы не можете голосовать в опросах
Вы не можете прикреплять файлы к сообщениям
Вы не можете скачивать файлы

!ВНИМАНИЕ!
Сайт не предоставляет электронные версии произведений, а занимается лишь коллекционированием и каталогизацией ссылок, присылаемых и публикуемых на форуме нашими читателями. Если вы являетесь правообладателем какого-либо представленного материала и не желаете, чтобы ссылка на него находилась в нашем каталоге, свяжитесь с нами, и мы незамедлительно удалим ее. Файлы для обмена на трекере предоставлены пользователями сайта, и администрация не несет ответственности за их содержание. Просьба не заливать файлы, защищенные авторскими правами, а также файлы нелегального содержания!