[ Сегодня идет свободное скачивание без начисления Download ]


Статистика раздачи
Качаю: [ 2 ]
Скачал: [ 11 ]
 
   
 
 
 
 
Научись создавать сайты с нуля за 5 недель- Автор (режиссер): Артем Исламов
Жанр: Сайтостроение
Продолжительность: 32:19:42 (22:34:40 + 09:45:02)
Качество видео: PCRec
Видео: AVC/H.264, 1152x720, ~~436 Kbps
Аудио: AAC, 2 ch, 126 Kbps
Описание:
За 5 недель вы научитесь верстать сложные адаптивные сайты с применением JS/PHP.

Mediainfo:

Формат : MPEG-4
Профиль формата : Base Media / Version 2
Идентификатор кодека : mp42 (isom/mp42)
Размер файла : 56,7 Мбайт
Продолжительность : 13 м. 23 с.
Режим общего битрейта : Переменный
Общий поток : 592 Кбит/сек
Дата кодирования : UTC 2016-11-12 11:57:15
Дата пометки : UTC 2016-11-12 11:57:15
gsst : 0
gstd : 803596
Видео
Идентификатор : 1
Формат : AVC
Формат/Информация : Advanced Video Codec
Профиль формата : Main@L3.1
Параметр CABAC формата : Да
Параметр ReFrames формата : 3 кадра
Идентификатор кодека : avc1
Идентификатор кодека/Информация : Advanced Video Coding
Продолжительность : 13 м. 23 с.
Битрейт : 463 Кбит/сек
Ширина : 1276 пикселей
Высота : 720 пикселей
Соотношение сторон : 16:9
Режим частоты кадров : Постоянный
Частота кадров : 30,000 кадров/сек
Цветовое пространство : YUV
Субдискретизация насыщенности : 4:2:0
Битовая глубина : 8 бит
Тип развёртки : Прогрессивная
Бит/(Пиксели*Кадры) : 0.017
Размер потока : 44,3 Мбайт (78%)
Заголовок : ISO Media file produced by Google Inc.
Дата кодирования : UTC 2016-11-12 11:57:15
Дата пометки : UTC 2016-11-12 11:57:15
Цветовой диапазон : Limited
Основные цвета : BT.709
Характеристики трансфера : BT.709
Коэффициенты матрицы : BT.709
Аудио
Идентификатор : 2
Формат : AAC
Формат/Информация : Advanced Audio Codec
Профиль формата : LC
Идентификатор кодека : 40
Продолжительность : 13 м. 23 с.
Вид битрейта : Переменный
Битрейт : 126 Кбит/сек
Каналы : 2 канала
Расположение каналов : Front: L R
Частота : 44,1 КГц
Частота кадров : 43,066 кадра/сек (1024 spf)
Метод сжатия : С потерями
Размер потока : 12,0 Мбайт (21%)
Заголовок : ISO Media file produced by Google Inc.
Дата кодирования : UTC 2016-11-12 11:57:15
Дата пометки : UTC 2016-11-12 11:57:15

Дополнительная информация:

Урок 01. Подготовка рабочего пространства для веб-разработки
Урок 02. Этапы создания сайта. Прототипирование
Урок 03. Работа с дизайн-макетом. Требования к макету перед версткой
Урок 04. Основы HTML. Директория (папка) с сайтом. Автообновление страницы
Урок 05. Текстовые теги. Основы CSS
Урок 06. Изображения на сайте. Работа со ссылками
Урок 07. Знакомство с Bootstrap 3. Подключаем фреймворк
Урок 08. Работа с репозиторием на GitHub
Урок 09. Колоночная верстка. Готовые классы Bootstrap 3
Урок 10. Позиционирование и типы элементов
Урок 11. Подключение шрифтов на сайт. Верстка из PSD-макета
Урок 12. Less. Верстка макета. Формы
Урок 13. Иконочный шрифт Font Awesome
Урок 14. Эффекты при наведении. Сниппеты
Урок 15. Аккордеон и Табы
Урок 16. Слайдеры
Урок 17. Всплывающие окна
Урок 18. Анимация на CSS3
Урок 19. Адаптивная верстка
Урок 20. Отправка данных на почту. Основы PHP
Урок 21. JQUERY
Урок 22. Видеофон на сайт
Урок 23. Хостинг. Публикация. Тесты
Урок 24. Натягиваем шаблон bootstrap на WordPress
Урок 25. Flexbox
Урок 26. Гео-карты для сайта. Yandex & Google
Урок 27. Аналитика на сайт
Урок 28. Развитие себя как специалиста
Урок 29. Поиск клиентов. CRM. Продажи
Дополнительно:
Ответы на вопросы
Поговорим о коде
SEO Бонусный урок
Скриншоты:

[Цитировать]



Показать сообщения:    

Текущее время: 23-Ноя 05:37

Часовой пояс: UTC + 6


Вы не можете начинать темы
Вы не можете отвечать на сообщения
Вы не можете редактировать свои сообщения
Вы не можете удалять свои сообщения
Вы не можете голосовать в опросах
Вы не можете прикреплять файлы к сообщениям
Вы не можете скачивать файлы

!ВНИМАНИЕ!
Сайт не предоставляет электронные версии произведений, а занимается лишь коллекционированием и каталогизацией ссылок, присылаемых и публикуемых на форуме нашими читателями. Если вы являетесь правообладателем какого-либо представленного материала и не желаете, чтобы ссылка на него находилась в нашем каталоге, свяжитесь с нами, и мы незамедлительно удалим ее. Файлы для обмена на трекере предоставлены пользователями сайта, и администрация не несет ответственности за их содержание. Просьба не заливать файлы, защищенные авторскими правами, а также файлы нелегального содержания!