[ Сегодня идет свободное скачивание без начисления Download ]


Статистика раздачи
Скачал: [ 8 ]
 
   
 
 
 
 

«Never bet against a man with a killer hand»
Год выпуска: 2015
Страна: США
Производство: Cinema Seven Productions, Current Entertainment, Lionsgate
Жанр: Боевик, триллер, драма, криминал
Режиссёр: Саймон Уэст
В ролях: Джейсон Стэйтем, Майкл Ангарано, Майло Вентимилья, Доминик Гарсиа-Лоридо, Энн Хеч, София Вергара, Макс Казелла, Джейсон Александер, Хоуп Дэвис, Стэнли Туччи, Крис Браунинг, Мэттью Уиллиг
Перевод: Профессиональный (полное дублирование) [ТНТ] + Оригинал (английский)
Субтитры: Русские (полные), английские (полные, SDH)
Описание: Главный герой — бывший военный Ник Уайлд — работает в Лас-Вегасе охранником, мечтает накопить денег и навсегда уехать на остров Корсика. Но Ник соглашается помочь давней знакомой Холли, постоянно подвергающейся насилию со стороны сына крупного гангстера, из-за чего его отъезд откладывается.

Качество: BDRip-AVC
Продолжительность: 01:32:20
Формат: MKV
Видео кодек: AVC
Аудио кодек: AС3
Видео: 1048x436 (2.40:1), 23.976 fps, AVC ~ 1 843 kbps avg, 0.168 bit/pixel
Аудио#1: AC3, 48 kHz, 2 ch, ~ 192.00 kbps avg | Профессиональный (полное дублирование) [ТНТ]
Аудио#2: AC3, 48 kHz, 2 ch, ~ 224.00 kbps avg | Оригинал (английский)
Дата премьеры (мир): 14 января 2015

MI

General
Unique ID                      : 238973145052229295296627556015228038781 (0xB3C88DB8787A902EB5B70A1C6F53AE7D)
Complete name                  : Wild.Card.2015.BDRip-AVC.RUS.ENG.stalkerok.new-team.mkv
Format                         : Matroska
Format version                 : Version 4 / Version 2
File size                      : 1.46 GiB
Duration                       : 1 h 32 min
Overall bit rate               : 2 260 kb/s
Movie name                     : Wild Card (2015) (Rip by stalkerok)
Encoded date                   : UTC 2017-07-02 16:47:19
Writing application            : mkvmerge v8.6.1 ('Flying') 64bit
Writing library                : libebml v1.3.3 + libmatroska v1.4.4
Video
ID                             : 1
Format                         : AVC
Format/Info                    : Advanced Video Codec
Format profile                 : High@L4.1
Format settings, CABAC         : Yes
Format settings, ReFrames      : 15 frames
Codec ID                       : V_MPEG4/ISO/AVC
Duration                       : 1 h 32 min
Bit rate                       : 1 843 kb/s
Width                          : 1 048 pixels
Height                         : 436 pixels
Display aspect ratio           : 2.40:1
Original display aspect ratio  : 2.40:1
Frame rate mode                : Constant
Frame rate                     : 23.976 (24000/1001) FPS
Color space                    : YUV
Chroma subsampling             : 4:2:0
Bit depth                      : 8 bits
Scan type                      : Progressive
Bits/(Pixel*Frame)             : 0.168
Stream size                    : 1.19 GiB (81%)
Title                          : Wild Card (2015) (Rip by stalkerok)
Writing library                : x264 core 150 r2833kMod df79067
Encoding settings              : cabac=1 / ref=15 / deblock=1:-3:-2 / analyse=0x3:0x133 / me=umh / subme=10 / psy=1 / fade_compensate=0.00 / psy_rd=1.00:0.00 / mixed_ref=1 / me_range=32 / chroma_me=1 / trellis=2 / 8x8dct=1 / cqm=0 / deadzone=21,11 / fast_pskip=0 / chroma_qp_offset=-2 / threads=12 / lookahead_threads=3 / sliced_threads=0 / nr=0 / decimate=0 / interlaced=0 / bluray_compat=0 / constrained_intra=0 / bframes=15 / b_pyramid=2 / b_adapt=2 / b_bias=0 / direct=3 / weightb=1 / open_gop=0 / weightp=2 / keyint=240 / keyint_min=23 / scenecut=40 / intra_refresh=0 / rc_lookahead=60 / rc=2pass / mbtree=0 / bitrate=1843 / ratetol=1.0 / qcomp=0.65 / qpmin=0 / qpmax=69 / qpstep=4 / cplxblur=20.0 / qblur=0.5 / vbv_maxrate=50000 / vbv_bufsize=62500 / nal_hrd=none / filler=0 / ip_ratio=1.40 / pb_ratio=1.30 / aq=3:0.80
Default                        : Yes
Forced                         : No
Audio #1
ID                             : 2
Format                         : AC-3
Format/Info                    : Audio Coding 3
Format settings, Endianness    : Big
Codec ID                       : A_AC3
Duration                       : 1 h 32 min
Bit rate mode                  : Constant
Bit rate                       : 192 kb/s
Channel(s)                     : 2 channels
Channel positions              : Front: L R
Sampling rate                  : 48.0 kHz
Frame rate                     : 31.250 FPS (1536 spf)
Bit depth                      : 16 bits
Compression mode               : Lossy
Stream size                    : 127 MiB (8%)
Language                       : Russian
Service kind                   : Complete Main
Default                        : Yes
Forced                         : No
Audio #2
ID                             : 3
Format                         : AC-3
Format/Info                    : Audio Coding 3
Format settings, Endianness    : Big
Codec ID                       : A_AC3
Duration                       : 1 h 32 min
Bit rate mode                  : Constant
Bit rate                       : 224 kb/s
Channel(s)                     : 2 channels
Channel positions              : Front: L R
Sampling rate                  : 48.0 kHz
Frame rate                     : 31.250 FPS (1536 spf)
Bit depth                      : 16 bits
Compression mode               : Lossy
Stream size                    : 148 MiB (10%)
Language                       : English
Service kind                   : Complete Main
Default                        : No
Forced                         : No
Text #1
ID                             : 4
Format                         : UTF-8
Codec ID                       : S_TEXT/UTF8
Codec ID/Info                  : UTF-8 Plain Text
Duration                       : 1 h 24 min
Bit rate                       : 91 b/s
Count of elements              : 1021
Stream size                    : 57.1 KiB (0%)
Language                       : Russian
Default                        : No
Forced                         : No
Text #2
ID                             : 5
Format                         : UTF-8
Codec ID                       : S_TEXT/UTF8
Codec ID/Info                  : UTF-8 Plain Text
Duration                       : 1 h 23 min
Bit rate                       : 53 b/s
Count of elements              : 1079
Stream size                    : 32.8 KiB (0%)
Language                       : English
Default                        : No
Forced                         : No
Text #3
ID                             : 6
Format                         : UTF-8
Codec ID                       : S_TEXT/UTF8
Codec ID/Info                  : UTF-8 Plain Text
Duration                       : 1 h 24 min
Bit rate                       : 55 b/s
Count of elements              : 1165
Stream size                    : 34.4 KiB (0%)
Title                          : SDH
Language                       : English
Default                        : No
Forced                         : No
Menu
00:00:00.000                   : en:00:00:00.000
00:06:08.658                   : en:00:06:08.658
00:14:12.350                   : en:00:14:12.350
00:23:21.816                   : en:00:23:21.816
00:27:53.296                   : en:00:27:53.296
00:33:44.814                   : en:00:33:44.814
00:39:56.893                   : en:00:39:56.893
00:45:03.532                   : en:00:45:03.532
00:49:49.193                   : en:00:49:49.193
00:56:36.391                   : en:00:56:36.391
01:00:54.317                   : en:01:00:54.317
01:05:01.105                   : en:01:05:01.105
01:10:29.557                   : en:01:10:29.557
01:16:24.787                   : en:01:16:24.787
01:21:46.275                   : en:01:21:46.275
01:25:39.257                   : en:01:25:39.257

Скриншоты


[Цитировать]



Показать сообщения:    

Текущее время: 23-Ноя 05:52

Часовой пояс: UTC + 6


Вы не можете начинать темы
Вы не можете отвечать на сообщения
Вы не можете редактировать свои сообщения
Вы не можете удалять свои сообщения
Вы не можете голосовать в опросах
Вы не можете прикреплять файлы к сообщениям
Вы не можете скачивать файлы

!ВНИМАНИЕ!
Сайт не предоставляет электронные версии произведений, а занимается лишь коллекционированием и каталогизацией ссылок, присылаемых и публикуемых на форуме нашими читателями. Если вы являетесь правообладателем какого-либо представленного материала и не желаете, чтобы ссылка на него находилась в нашем каталоге, свяжитесь с нами, и мы незамедлительно удалим ее. Файлы для обмена на трекере предоставлены пользователями сайта, и администрация не несет ответственности за их содержание. Просьба не заливать файлы, защищенные авторскими правами, а также файлы нелегального содержания!