[ Сегодня идет свободное скачивание без начисления Download ]


Статистика раздачи
Качаю: [ 2 ]
Скачал: [ 15 ]
 
   
 
 
 
 
Двое с пистолетами (серии 1-16 из 16) (2013) HDTVRip/b]- Производство: Россия / Экшн-ТВ по заказу НТВ
Жанр: детектив
Режиссер: Алексей Гусев
Актеры: Сергей Векслер, Роман Полянский, Ксения Роменкова, Артур Ваха, Алексей Морозов, Юлия Денисова, Игорь Ключников, Ирина Сотикова, Варвара Павлова, Артур Харитоненко и др.
Описание:
В районный отдел полиции приходит на работу новый сотрудник — капитан Вадим Воронов. Но уже на первом задании по захвату особо опасного преступника Воронов умудряется вступить в конфликт со своим непосредственным начальником подполковником Николаем Дугиным… Они — как две столкнувшиеся вселенные. Два разных поколения, два диаметрально противоположных характера, но «мостик» через разделяющую их пропасть будет переброшен. И окажется, что герои идеально дополняют друг друга...

Возраст: 16+ (зрителям, достигшим 16 лет)
Продолжительность: ~ 00:44:00 серия
Качество видео: HDTVRip
Видео: Xvid, 720x400 (16:9), ~1488 Kbps
Аудио: AC3, 2 ch, 192 Kbps

Mediainfo:

Общее
Полное имя : D:\Мои фильмы\Dvoe_s_pistoletami_1-16iz16_2013_XviD_HDTVRip\Dvoe_s_pistoletami_01.avi
Формат : AVI
Формат/Информация : Audio Video Interleave
Размер файла : 556 Мбайт
Продолжительность : 46 м. 0 с.
Общий поток : 1689 Кбит/сек
Программа кодирования : VirtualDubMod 1.5.10.3 www.virtualdub-fr.org || (build 2550/release)
Библиотека кодирования : VirtualDub build 35491/release
Видео
Идентификатор : 0
Формат : MPEG-4 Visual
Профиль формата : Advanced Simple@L5
Параметр BVOP формата : 2
Параметр QPel формата : Нет
Параметр GMC формата : Без точки перехода
Параметр матрицы формата : Default (H.263)
Идентификатор кодека : XVID
Идентификатор кодека/Подсказка : XviD
Продолжительность : 46 м. 0 с.
Битрейт : 1488 Кбит/сек
Ширина : 720 пикселей
Высота : 400 пикселей
Соотношение сторон : 16:9
Частота кадров : 25,000 кадров/сек
Цветовое пространство : YUV
Субдискретизация насыщенности : 4:2:0
Битовая глубина : 8 бит
Тип развёртки : Прогрессивная
Метод сжатия : С потерями
Бит/(Пиксели*Кадры) : 0.207
Размер потока : 490 Мбайт (88%)
Библиотека кодирования : XviD 67
Аудио
Идентификатор : 1
Формат : AC-3
Формат/Информация : Audio Coding 3
Параметр Endianness формата : Big
Идентификатор кодека : 2000
Продолжительность : 46 м. 0 с.
Вид битрейта : Постоянный
Битрейт : 192 Кбит/сек
Каналы : 2 канала
Расположение каналов : Front: L R
Частота : 48,0 КГц
Частота кадров : 31,250 кадров/сек (1536 SPF)
Битовая глубина : 16 бит
Метод сжатия : С потерями
Размер потока : 63,2 Мбайт (11%)
Выравнивание : Соединение по промежуткам
Продолжительность промежутка : 40 мс. (1,00 видеокадр)
Время предзагрузки промежутка : 512 мс.
ServiceKind/String : Complete Main
Скриншоты:

[Цитировать]



Показать сообщения:    

Текущее время: 20-Окт 09:10

Часовой пояс: UTC + 6


Вы не можете начинать темы
Вы не можете отвечать на сообщения
Вы не можете редактировать свои сообщения
Вы не можете удалять свои сообщения
Вы не можете голосовать в опросах
Вы не можете прикреплять файлы к сообщениям
Вы не можете скачивать файлы

!ВНИМАНИЕ!
Сайт не предоставляет электронные версии произведений, а занимается лишь коллекционированием и каталогизацией ссылок, присылаемых и публикуемых на форуме нашими читателями. Если вы являетесь правообладателем какого-либо представленного материала и не желаете, чтобы ссылка на него находилась в нашем каталоге, свяжитесь с нами, и мы незамедлительно удалим ее. Файлы для обмена на трекере предоставлены пользователями сайта, и администрация не несет ответственности за их содержание. Просьба не заливать файлы, защищенные авторскими правами, а также файлы нелегального содержания!