[ Сегодня идет свободное скачивание без начисления Download ]


Статистика раздачи
Скачал: [ 7 ]
 
   
 
 
 
 
-Обещание / The Promise
«Империи гибнут. Любовь бессмертна»
- Год выпуска: 2016
Страна: Испания, США
Производство: Babieka, Rafael Catering, Survival Pictures, Wonderful Films
Жанр: Драма, история-Режиссёр: Терри Джордж / Terry George
В ролях: Кристиан Бэйл, Оскар Айзек, Шоре Агдашлу, Анджела Сарафян, Шарлотта Ле Бон, Джеймс Кромуэлл, Жан Рено, Том Холландер, Нуман Акар, Раде Шербеджия-Перевод: Дублированный [iTunes]
Субтитры: нет-Описание: 1914 год. Первая Мировая война набирает обороты. Великая Османская империя терпит крах, а Константинополь на глазах погружается в хаос. Студент-медик Микаэль Богосян в городе проездом. Он намерен развивать современную медицину в родной деревне на юге Турции, где турецкие мусульмане и армянские христиане веками мирно живут бок о бок. Фотокорреспондента Криса Майерса в Константинополь привела не столько работа, сколько пламенное чувство к армянской художнице Ане. Микаэль также очарован Аной, но соперничество между мужчинами сходит на нет, когда Империя начинает жестоко преследовать национальные меньшинства. Обещания даются и нарушаются… Но одно нельзя не сдержать - обещание выжить и поведать миру правдивую историю.- -Качество: HDRip
Продолжительность: 02:13:07
Формат: AVI
Видео: 720x304 (2.35:1), 23.976 fps, XviD build 50 ~1083 kbps avg, 0.21 bit/pixel
Аудио: 48 kHz, AC3 Dolby Digital, 3/2 (L,C,R,l,r) + LFE ch, ~384 kbps avg-Дата премьеры (мир): 11 сентября 2016
Дата премьеры (РФ): 27 апреля 2017, «Централ Партнершип»

MediaInfo

Общее
Полное имя                               : D:\Кино\The.Promise.2016.D.1400.HDRip.Rustorrents.avi
Формат                                   : AVI
Формат/Информация                        : Audio Video Interleave
Размер файла                             : 1,37 Гбайт
Продолжительность                        : 2 ч. 13 м.
Общий поток                              : 1477 Кбит/сек
Название фильма                          : Rustorrents.pro
Программа кодирования                    : VirtualDubMod 1.5.10.3 | www.virtualdub-fr.org || (build 2550/release)
Видео
Идентификатор                            : 0
Формат                                   : MPEG-4 Visual
Профиль формата                          : Advanced Simple@L5
Параметр BVOP формата                    : 2
Параметр QPel формата                    : Нет
Параметр GMC формата                     : Без точки перехода
Параметр матрицы формата                 : Выборочная
Идентификатор кодека                     : XVID
Идентификатор кодека/Подсказка           : XviD
Продолжительность                        : 2 ч. 13 м.
Битрейт                                  : 1083 Кбит/сек
Ширина                                   : 720 пикселей
Высота                                   : 304 пикселя
Соотношение сторон                       : 2,35:1
Частота кадров                           : 23,976 (24000/1001) кадра/сек
Цветовое пространство                    : YUV
Субдискретизация насыщенности            : 4:2:0
Битовая глубина                          : 8 бит
Тип развёртки                            : Прогрессивная
Метод сжатия                             : С потерями
Бит/(Пиксели*Кадры)                      : 0.206
Размер потока                            : 1,01 Гбайт (73%)
Библиотека кодирования                   : XviD 1.2.1 (UTC 2008-12-04)
Аудио
Идентификатор                            : 1
Формат                                   : AC-3
Формат/Информация                        : Audio Coding 3
Параметр Endianness формата              : Big
Идентификатор кодека                     : 2000
Продолжительность                        : 2 ч. 13 м.
Вид битрейта                             : Постоянный
Битрейт                                  : 384 Кбит/сек
Каналы                                   : 6 каналов
Расположение каналов                     : Front: L C R, Side: L R, LFE
Частота                                  : 48,0 КГц
Частота кадров                           : 31,250 кадров/сек (1536 SPF)
Битовая глубина                          : 16 бит
Метод сжатия                             : С потерями
Размер потока                            : 366 Мбайт (26%)
Выравнивание                             : Разделение по промежуткам
Продолжительность промежутка             : 42  мс. (1,00 видеокадр)
Время предзагрузки промежутка            : 500  мс.
ServiceKind/String                       : Complete Main

Скриншоты

[Цитировать]



Показать сообщения:    

Текущее время: 23-Окт 01:11

Часовой пояс: UTC + 6


Вы не можете начинать темы
Вы не можете отвечать на сообщения
Вы не можете редактировать свои сообщения
Вы не можете удалять свои сообщения
Вы не можете голосовать в опросах
Вы не можете прикреплять файлы к сообщениям
Вы не можете скачивать файлы

!ВНИМАНИЕ!
Сайт не предоставляет электронные версии произведений, а занимается лишь коллекционированием и каталогизацией ссылок, присылаемых и публикуемых на форуме нашими читателями. Если вы являетесь правообладателем какого-либо представленного материала и не желаете, чтобы ссылка на него находилась в нашем каталоге, свяжитесь с нами, и мы незамедлительно удалим ее. Файлы для обмена на трекере предоставлены пользователями сайта, и администрация не несет ответственности за их содержание. Просьба не заливать файлы, защищенные авторскими правами, а также файлы нелегального содержания!