[ Сегодня идет свободное скачивание без начисления Download ]


Статистика раздачи
Скачал: [ 1 ]
 
   
 
 
 
 
Затонувшая субмарина фашистов / Nazi Sunken Sub (2011) HDTV 1080i Год выпуска: 2011
Студия: Pipeline 39 Production
Жанр: Документальный
Описание:
1945 год... Надежда нацистов на победу в войне быстро угасает, но они всё ещё пытаются изменить её ход в свою сторону. Их последние старания на этом поприще сегодня покоятся на дне Балтийского моря. После более чем десятилетних поисков финская команда водолазов надеется войти в историю, раскрыв тайну затонувшей субмарины фашистов.
Страна: США
Продолжительность: 00:45:00
Перевод: Одноголосый закадровый
Доп. инфо о переводе: АРК-ТВ
Русские субтитры: нет
Сэмпл:
Тип релиза: HDTV 1080i
Контейнер: TS
Видео: 1920x1080 at 25.000 fps, MPEG-4 AVC, ~6937 kbps avg
Аудио: Русский: 48 kHz, AC3, 2/0 (L,R) ch, ~192.00 kbps avg |Одноголосый закадровый, АРК-ТВ, текст читает Михаил Тихонов|
Аудио 2: English: 48 kHz, AC3, 2/0 (L,R) ch, ~192.00 kbps avg

M/I

Общее
Идентификатор : 1 (0x1)
Полное имя : Nazi.Sunken.Sub.(2011).1080i.HDTV.Rus.Eng_HDCLUB.ts
Формат : MPEG-TS
Размер файла : 2,42 Гбайт
Продолжительность : 44 м. 59 с.
Режим общего битрейта : Переменный
Общий поток : 7706 Кбит/сек
Максимальный общий битрейт : 35,5 Мбит/сек
Видео
Идентификатор : 4113 (0x1011)
Идентификатор меню : 1 (0x1)
Формат : AVC
Формат/Информация : Advanced Video Codec
Профиль формата : High@L4.1
Параметр CABAC формата : Нет
Параметр ReFrames формата : 4 кадра
Идентификатор кодека : 27
Продолжительность : 44 м. 59 с.
Вид битрейта : Переменный
Битрейт : 6937 Кбит/сек
Максимальный битрейт : 26,2 Мбит/сек
Ширина : 1920 пикселей
Высота : 1080 пикселей
Соотношение сторон : 16:9
Частота кадров : 25,000 кадров/сек
Стандарт вещания : Component
Цветовое пространство : YUV
Субдискретизация насыщенности : 4:2:0
Битовая глубина : 8 бит
Тип развёртки : MBAFF
Метод сохранения типа развёртки : Чередующиеся поля
Порядок развёртки : Верхнее поле первое
Бит/(Пиксели*Кадры) : 0.134
Размер потока : 2,18 Гбайт (90%)
Цветовой диапазон : Limited
Основные цвета : BT.709
Характеристики трансфера : BT.709
Коэффициенты матрицы : BT.709
Аудио #1
Идентификатор : 4352 (0x1100)
Идентификатор меню : 1 (0x1)
Формат : AC-3
Формат/Информация : Audio Coding 3
Расширение режима : CM (complete main)
Параметр Endianness формата : Big
Идентификатор кодека : 129
Продолжительность : 44 м. 59 с.
Вид битрейта : Постоянный
Битрейт : 192 Кбит/сек
Каналы : 2 канала
Расположение каналов : Front: L R
Частота : 48,0 КГц
Частота кадров : 31,250 кадров/сек (1536 spf)
Битовая глубина : 16 бит
Метод сжатия : С потерями
Размер потока : 61,8 Мбайт (2%)
Язык : Russian
Аудио #2
Идентификатор : 4353 (0x1101)
Идентификатор меню : 1 (0x1)
Формат : AC-3
Формат/Информация : Audio Coding 3
Расширение режима : CM (complete main)
Параметр Endianness формата : Big
Идентификатор кодека : 129
Продолжительность : 44 м. 59 с.
Вид битрейта : Постоянный
Битрейт : 192 Кбит/сек
Каналы : 2 канала
Расположение каналов : Front: L R
Частота : 48,0 КГц
Частота кадров : 31,250 кадров/сек (1536 spf)
Битовая глубина : 16 бит
Метод сжатия : С потерями
Размер потока : 61,8 Мбайт (2%)
Язык : English

Скриншоты

[Цитировать]



Показать сообщения:    

Текущее время: 12-Дек 15:29

Часовой пояс: UTC + 6


Вы не можете начинать темы
Вы не можете отвечать на сообщения
Вы не можете редактировать свои сообщения
Вы не можете удалять свои сообщения
Вы не можете голосовать в опросах
Вы не можете прикреплять файлы к сообщениям
Вы не можете скачивать файлы

!ВНИМАНИЕ!
Сайт не предоставляет электронные версии произведений, а занимается лишь коллекционированием и каталогизацией ссылок, присылаемых и публикуемых на форуме нашими читателями. Если вы являетесь правообладателем какого-либо представленного материала и не желаете, чтобы ссылка на него находилась в нашем каталоге, свяжитесь с нами, и мы незамедлительно удалим ее. Файлы для обмена на трекере предоставлены пользователями сайта, и администрация не несет ответственности за их содержание. Просьба не заливать файлы, защищенные авторскими правами, а также файлы нелегального содержания!