[ Сегодня идет свободное скачивание без начисления Download ]


Статистика раздачи
Скачал: [ 1 ]
 
   
 
 
 
 
Парад смерти / Death Parade- Информация:
Название: Парад смерти
Оригинальное название: Death Parade
Год выхода: 2015
Жанр: триллер, мистика, психология
Режиссер: Татикава Юдзуру
Художник: Хираянаги Сатоси
В ролях: Маэно Томоаки, Сэто Асами, Окубо Руми, Хосоя Ёсимаса, Утияма Коки, Сирайси Рёко, Юдзуки Рёка, Накай Кадзуя, Кавасуми Аяко, Мадзима Дзюндзи, Итимити Мао, Морита Масакадзу, Ямагути Юрико, Ясумото Хироки, Мацумото Мэгуми, Танэдзаки Ацуми, Мияно Мамору, Сакурай Такахиро, Фудзивара Кэйдзи, Тани Икуко
О фильме:
Все там будем – это однозначно, но большинство религий учит, что достойная жизнь принесет некие бонусы, недостойная приведет к долгим и неприятным процедурам, а кто жил серединка на половинку, тоже получит по заслугам. Но где и как такое решается? Тут мнения жрецов и пророков разошлись: кто рисует апостола Петра, кто – узенький мостик над огненной пропастью… А на деле все проще, и вход в чистилище можно найти в обычном питейном заведении, куда заглядывают самые разные личности! Конечно, бар «Пятнадцать» - лишь один из постов царства мертвых, специализирующийся на парных случаях. То есть, если два человека умерли примерно в одно время, их доставляют в бар и предлагают сыграть в интересную игру, ставки которой становятся известны ближе к финалу. Тут и начинается самое интересное, обнажающее истинную человеческую суть. А дальше бесстрастный бармен принимает решение, которое обжалованию не подлежит… Ну, не знаю, как вы, а я по барам больше не хожу!

Страна: Япония
Студия: Madhouse Studios
Продолжительность: 00:23:00
Язык: Русский, Японский
Перевод: Любительский (многоголосый, закадровый)
Реклама: Присутствует в озвучке от SHIZA Project
Файл:
Качество: HDTVRip 720p
Формат: MKV
Кодек: H.264
Аудио кодек: AAC
Видео: 1280x720, 23.976 fps, 1825 kbps
Аудио RUS: 48.0 kHz, AAC, 2 ch, 192 kbps - AniDub
Аудио RUS: 48.0 kHz, AAC, 2 ch, 192 kbps - SHIZA Project
Аудио JAP: 48.0 kHz, AAC, 2 ch, 192 kbps
Субтитры: русские (встроенные полный перевод, ASS) - LeDi-MaHo Team, русские (встроенные полный перевод, ASS) - Teisoku & Timecraft

Дополнительная информация

Релиз от:
Озвучивание: Shina, BalFor, Cuba77
Перевод: LeDi-MaHo Team
Релиз от:
Озвучивание: NIKITOS, NesTea, Лизавета
Перевод: LeDi-MaHo Team
Тайминг и работа со звуком: Gigantic Guyver

Скриншоты

Список серий

01. Смерть. Семь дротиков
02. Смерть. По ту сторону
03. Катящийся шар. Баллада
04. Смерть. Игровой автомат
05. Смерть. Марш
06. Cross Heart Attack
07. Хмельной яд
08. Cмертельно длинная игра
09. Смертельная расплата
10. Сказочник
11. Memento mori
12. Тур самоубийц

MediaInfo

General
Format : Matroska
Format version : Version 4 / Version 2
File size : 393 MiB
Duration : 23mn 22s
Overall bit rate : 2 350 Kbps
Encoded date : UTC 2016-05-07 15:19:44
Writing application : mkvmerge v8.3.0 ('Over the Horizon') 64bit
Writing library : libebml v1.3.1 + libmatroska v1.4.2
Video
ID : 1
Format : AVC
Format/Info : Advanced Video Codec
Format profile : High@L4.1
Format settings, CABAC : Yes
Format settings, ReFrames : 4 frames
Codec ID : V_MPEG4/ISO/AVC
Duration : 22mn 49s
Bit rate : 1 825 Kbps
Width : 1 280 pixels
Height : 720 pixels
Display aspect ratio : 16:9
Frame rate mode : Constant
Frame rate : 23.976 (24000/1001) fps
Color space : YUV
Chroma subsampling : 4:2:0
Bit depth : 8 bits
Scan type : Progressive
Bits/(Pixel*Frame) : 0.083
Stream size : 298 MiB (76%)
Writing library : x264 core 129 r2245+729M 1a52e03
Encoding settings : cabac=1 / ref=4 / deblock=1:1:-1 / analyse=0x3:0x113 / me=umh / subme=9 / psy=1 / fade_compensate=0.00 / psy_rd=1.00:0.00 / mixed_ref=1 / me_range=24 / chroma_me=1 / trellis=2 / 8x8dct=1 / cqm=0 / deadzone=21,11 / fast_pskip=1 / chroma_qp_offset=-2 / threads=8 / lookahead_threads=1 / sliced_threads=0 / nr=0 / decimate=1 / interlaced=0 / bluray_compat=0 / constrained_intra=0 / fgo=0 / bframes=9 / b_pyramid=2 / b_adapt=2 / b_bias=0 / direct=1 / weightb=1 / open_gop=0 / weightp=2 / keyint=240 / keyint_min=24 / scenecut=40 / intra_refresh=0 / rc=crf / mbtree=0 / crf=18.5 / qcomp=0.72 / qpmin=0 / qpmax=69 / qpstep=4 / ip_ratio=1.40 / pb_ratio=1.30 / aq=1:0.85
Language : Japanese
Default : Yes
Forced : No
Color range : Limited
Color primaries : BT.709
Transfer characteristics : BT.709
Matrix coefficients : BT.709
Audio #1
ID : 2
Format : AAC
Format/Info : Advanced Audio Codec
Format profile : LC
Codec ID : A_AAC
Duration : 22mn 49s
Bit rate : 192 Kbps
Channel(s) : 2 channels
Channel positions : Front: L R
Sampling rate : 48.0 KHz
Frame rate : 46.875 fps (1024 spf)
Compression mode : Lossy
Stream size : 31.3 MiB (8%)
Title : AniDub
Language : Russian
Default : Yes
Forced : No
Audio #2
ID : 3
Format : AAC
Format/Info : Advanced Audio Codec
Format profile : LC
Codec ID : A_AAC
Duration : 22mn 50s
Bit rate : 192 Kbps
Channel(s) : 2 channels
Channel positions : Front: L R
Sampling rate : 48.0 KHz
Frame rate : 46.875 fps (1024 spf)
Compression mode : Lossy
Stream size : 31.4 MiB (8%)
Title : SHIZA Project
Language : Russian
Default : No
Forced : No
Audio #3
ID : 4
Format : AAC
Format/Info : Advanced Audio Codec
Format profile : LC
Codec ID : A_AAC
Duration : 22mn 50s
Bit rate : 192 Kbps
Channel(s) : 2 channels
Channel positions : Front: L R
Sampling rate : 48.0 KHz
Frame rate : 46.875 fps (1024 spf)
Compression mode : Lossy
Stream size : 31.3 MiB (8%)
Title : Original
Language : Japanese
Default : No
Forced : No
Text #1
ID : 5
Format : ASS
Codec ID : S_TEXT/ASS
Codec ID/Info : Advanced Sub Station Alpha
Duration : 23mn 5s
Bit rate : 478 bps
Count of elements : 780
Compression mode : Lossless
Stream size : 80.9 KiB (0%)
Title : LeDi-MaHo Team
Language : Russian
Default : Yes
Forced : No
Text #2
ID : 6
Format : ASS
Codec ID : S_TEXT/ASS
Codec ID/Info : Advanced Sub Station Alpha
Duration : 22mn 30s
Bit rate : 141 bps
Count of elements : 309
Compression mode : Lossless
Stream size : 23.4 KiB (0%)
Title : Teisoku & Timecraft
Language : Russian
Default : No
Forced : No

Скриншоты

[Цитировать]



Показать сообщения:    

Текущее время: 24-Сен 00:23

Часовой пояс: UTC + 6


Вы не можете начинать темы
Вы не можете отвечать на сообщения
Вы не можете редактировать свои сообщения
Вы не можете удалять свои сообщения
Вы не можете голосовать в опросах
Вы не можете прикреплять файлы к сообщениям
Вы не можете скачивать файлы

!ВНИМАНИЕ!
Сайт не предоставляет электронные версии произведений, а занимается лишь коллекционированием и каталогизацией ссылок, присылаемых и публикуемых на форуме нашими читателями. Если вы являетесь правообладателем какого-либо представленного материала и не желаете, чтобы ссылка на него находилась в нашем каталоге, свяжитесь с нами, и мы незамедлительно удалим ее. Файлы для обмена на трекере предоставлены пользователями сайта, и администрация не несет ответственности за их содержание. Просьба не заливать файлы, защищенные авторскими правами, а также файлы нелегального содержания!