[ Сегодня идет свободное скачивание без начисления Download ]


Статистика раздачи
Скачал: [ 8 ]
 
   
 
 
 
 
Курс по React.js- Автор (режиссер):Роман Якобчук
Производство: javascript.ru
Жанр: Программирование, JavaScript, React.js
Продолжительность: 14:00:45
Качество видео: PCRec
Видео: AVC/H.264, 1360x756, ~262 Кбит/сек
Аудио: AAC, 2 ch, 192 Кбит/сек
Описание:
В этом курсе мы с вами шаг за шагом пройдем от знакомства с основными идеями до использования самых новых инструментов и инфраструктуры React, на практике будем развивать одностраничное приложение. Начнем с построения простых компонентов, научимся настраивать окружение, поговорим про системы сборки и особенности работы с ES2015 синтаксисом.
Постепенно мы разберем особенности построения SPA с использованием React, будем использовать сторонние компоненты и библиотеки для создания бизнес-логики. Вы в деталях узнаете классическую для React-приложений архитектуру: Unidirectional dataflow, и научитесь строить ее с использованием современной и наиболее популярной реализацией Flux – Redux.js
Курс состоит из 4-х блоков:
1. Знакомство с React.
2. Инфраструктура React.
3. Построение приложений с React: Redux.js.
4. React для SPA: react-router и продвинутые API Реакта

Mediainfo:

Общее
Полное имя : C:\Users\Mauladen\Downloads\Курс по React.js\Лекции\Курс по React.JS #1.mp4
Формат : MPEG-4
Профиль формата : Base Media
Идентификатор кодека : isom (isom/iso2/avc1/mp41)
Размер файла : 314 Мбайт
Продолжительность : 1 ч. 35 м.
Общий поток : 461 Кбит/сек
Программа кодирования : Lavf57.25.100
Видео
Идентификатор : 1
Формат : AVC
Формат/Информация : Advanced Video Codec
Профиль формата : Baseline@L3.2
Параметр CABAC формата : Нет
Параметр RefFrames формата : 1 кадр
Идентификатор кодека : avc1
Идентификатор кодека/Информация : Advanced Video Coding
Продолжительность : 1 ч. 35 м.
Битрейт : 262 Кбит/сек
Ширина : 1360 пикселей
Высота : 756 пикселей
Соотношение сторон : 16:9
Режим частоты кадров : Переменный
Частота кадров : 30,000 кадров/сек
Минимальная частота кадров : 15,000 кадров/сек
Максимальная частота кадров : 30,000 кадров/сек
Цветовое пространство : YUV
Субдискретизация насыщенности : 4:2:0
Битовая глубина : 8 бит
Тип развёртки : Прогрессивная
Бит/(Пиксели*Кадры) : 0.009
Размер потока : 179 Мбайт (57%)
Аудио
Идентификатор : 2
Формат : AAC
Формат/Информация : Advanced Audio Codec
Профиль формата : LC
Идентификатор кодека : 40
Продолжительность : 1 ч. 35 м.
Вид битрейта : Постоянный
Битрейт : 192 Кбит/сек
Каналы : 2 канала
Расположение каналов : Front: L R
Частота : 44,1 КГц
Частота кадров : 43,066 кадра/сек (1024 SPF)
Метод сжатия : С потерями
Размер потока : 131 Мбайт (42%)
Default : Да
AlternateGroup/String : 1
Скриншоты:

[Цитировать]



Показать сообщения:    

Текущее время: 21-Ноя 12:29

Часовой пояс: UTC + 6


Вы не можете начинать темы
Вы не можете отвечать на сообщения
Вы не можете редактировать свои сообщения
Вы не можете удалять свои сообщения
Вы не можете голосовать в опросах
Вы не можете прикреплять файлы к сообщениям
Вы не можете скачивать файлы

!ВНИМАНИЕ!
Сайт не предоставляет электронные версии произведений, а занимается лишь коллекционированием и каталогизацией ссылок, присылаемых и публикуемых на форуме нашими читателями. Если вы являетесь правообладателем какого-либо представленного материала и не желаете, чтобы ссылка на него находилась в нашем каталоге, свяжитесь с нами, и мы незамедлительно удалим ее. Файлы для обмена на трекере предоставлены пользователями сайта, и администрация не несет ответственности за их содержание. Просьба не заливать файлы, защищенные авторскими правами, а также файлы нелегального содержания!