[ Сегодня идет свободное скачивание без начисления Download ]


Статистика раздачи
Качаю: [ 1 ]
Скачал: [ 7 ]
 
   
 
 
 
 
Побег с планеты Земля / Escape from Planet Earth (2013) Информация о фильме
Название: Побег с планеты Земля
Оригинальное название: Escape from Planet Earth
Год выхода: 2013
Жанр: мультфильм, фантастика, комедия, приключения, семейный
Режиссер: Кэллан Брукнер
В ролях: Брендан Фрейзер, Роб Кордри, Рики Джервэйс, Джонатан Морган Хейт, Джессика Альба, София Вергара, Пол Шеер, Джейсон Симпсон, Сара Джессика Паркер, Даг Абрахамс
О фильме:
На планете Бааб, в самом центре Вселенной, два брата делают всё возможное, чтобы защитить свою галактику. Они — полные противоположности. Если девиз Гарри — «сначала подумай, потом сделай», то отважный Скорч живет по закону «сила есть — ума не надо», что не мешает им слаженно работать. Но однажды они получают сигнал S.O.S. с опасной планеты…под названием Земля. Скорч, сломя голову, бросается на помощь, и, разумеется, влипает в неприятности. Только Гарри может вытащить его из «Зоны 51». Братья откроют множество головокружительных тайн, но смогут ли они сбежать с самой опасной планеты во Вселенной?

Выпущено: Rainmaker Entertainment
Продолжительность: 01:29:16
Перевод: Дублированный (лицензия)
Файл
Кодек: x264
Качество: BDRip (источник: Blu-ray Disc)
Видео: 1920x824 (2,35:1), 23.976 fps, 6369 kbps
Аудио: AC-3, 6 ch, 640 kbps
Скачать: сэмпл
Скриншоты

MI

Общее
Уникальный идентификатор : 217124092159278916328228991676867551564 (0xA358943E2D4C5E098093065E7ED6214C)
Полное имя : Escape.from.Planet.Earth.2013.BDRip.1080p.Rus.mkv
Формат : Matroska
Версия формата : Version 2
Размер файла : 4,37 Гбайт
Продолжительность : 1 ч. 29 м.
Общий поток : 7011 Кбит/сек
Название фильма : Побег с планеты Земля / Escape from Planet Earth (2013)
Дата кодирования : UTC 2013-04-01 08:59:56
Программа кодирования : mkvmerge v5.8.0 ('No Sleep / Pillow') built on Sep 2 2012 15:37:04
Библиотека кодирования : libebml v1.2.3 + libmatroska v1.3.0
Видео
Идентификатор : 1
Формат : AVC
Формат/Информация : Advanced Video Codec
Профиль формата : High@L4.1
Параметр CABAC формата : Да
Параметр ReFrames формата : 5 кадров
Идентификатор кодека : V_MPEG4/ISO/AVC
Продолжительность : 1 ч. 29 м.
Битрейт : 6369 Кбит/сек
Ширина : 1920 пикселей
Высота : 824 пикселя
Соотношение сторон : 2,35:1
Частота кадров : 23,976 кадра/сек
Цветовое пространство : YUV
Субдискретизация насыщенности : 4:2:0
Битовая глубина : 8 бит
Тип развёртки : Прогрессивная
Бит/(Пиксели*Кадры) : 0.168
Размер потока : 3,89 Гбайт (89%)
Заголовок : Release by AlexKa
Библиотека кодирования : x264 core 130 r2273 b3065e6
Настройки программы : cabac=1 / ref=5 / deblock=1:0:0 / analyse=0x3:0x133 / me=umh / subme=10 / psy=1 / psy_rd=1.00:0.00 / mixed_ref=1 / me_range=32 / chroma_me=1 / trellis=2 / 8x8dct=1 / cqm=0 / deadzone=21,11 / fast_pskip=0 / chroma_qp_offset=-2 / threads=12 / lookahead_threads=1 / sliced_threads=0 / nr=0 / decimate=0 / interlaced=0 / bluray_compat=0 / constrained_intra=0 / bframes=3 / b_pyramid=2 / b_adapt=2 / b_bias=0 / direct=3 / weightb=1 / open_gop=0 / weightp=2 / keyint=240 / keyint_min=23 / scenecut=40 / intra_refresh=0 / rc_lookahead=60 / rc=2pass / mbtree=1 / bitrate=6369 / ratetol=1.0 / qcomp=0.60 / qpmin=0 / qpmax=69 / qpstep=4 / cplxblur=20.0 / qblur=0.5 / ip_ratio=1.40 / aq=1:1.00
Язык : English
Аудио
Идентификатор : 2
Формат : AC-3
Формат/Информация : Audio Coding 3
Расширение режима : CM (complete main)
Идентификатор кодека : A_AC3
Продолжительность : 1 ч. 29 м.
Вид битрейта : Постоянный
Битрейт : 640 Кбит/сек
Каналы : 6 каналов
Расположение каналов : Front: L C R, Side: L R, LFE
Частота : 48,0 КГц
Битовая глубина : 16 бит
Метод сжатия : С потерями
Размер потока : 409 Мбайт (9%)
Заголовок : Rus
Язык : Russian
Меню
00:00:00.000 : :Chapter 01
00:08:21.584 : :Chapter 02
00:15:30.888 : :Chapter 03
00:25:19.809 : :Chapter 04
00:32:23.274 : :Chapter 05
00:40:41.522 : :Chapter 06
00:49:52.572 : :Chapter 07
00:57:21.980 : :Chapter 08
01:06:59.014 : :Chapter 09
01:13:39.164 : :Chapter 10
01:21:54.242 : :Chapter 11

x264

x264 [info]: frame I:1784 Avg QP:13.88 size:187756
x264 [info]: frame P:42126 Avg QP:17.58 size: 59560
x264 [info]: frame B:84503 Avg QP:20.90 size: 16808

[Цитировать]



Показать сообщения:    

Текущее время: 25-Ноя 02:21

Часовой пояс: UTC + 6


Вы не можете начинать темы
Вы не можете отвечать на сообщения
Вы не можете редактировать свои сообщения
Вы не можете удалять свои сообщения
Вы не можете голосовать в опросах
Вы не можете прикреплять файлы к сообщениям
Вы не можете скачивать файлы

!ВНИМАНИЕ!
Сайт не предоставляет электронные версии произведений, а занимается лишь коллекционированием и каталогизацией ссылок, присылаемых и публикуемых на форуме нашими читателями. Если вы являетесь правообладателем какого-либо представленного материала и не желаете, чтобы ссылка на него находилась в нашем каталоге, свяжитесь с нами, и мы незамедлительно удалим ее. Файлы для обмена на трекере предоставлены пользователями сайта, и администрация не несет ответственности за их содержание. Просьба не заливать файлы, защищенные авторскими правами, а также файлы нелегального содержания!