[ Сегодня идет свободное скачивание без начисления Download ]


Статистика раздачи
Скачал: [ 1 ]
 
   
 
 
 
 
Чудесное Рождество Карстена и Петры / Karsten og Petras vidunderlige jul (2014) HDTV 1080i
Информация о фильме
Название: Чудесное Рождество Карстена и Петры
Оригинальное название: Karsten og Petras vidunderlige jul
Год выхода: 2014
Жанр: семейный
Режиссер: Арни Линдтнер Нэсс
В ролях: Янне Формоэ, Ивар Нёрве, Нора Амундсен, Элиас Совольд-Симонсен, Маркус Тонсет, Тоун Джонсен
О фильме:
Карстен и Петра с нетерпением ждут Рождества. Но где же снег? Петра решает написать письмо Санта Клаусу, в котором просит его сделать так, чтобы выпал снег, и чтобы Санта Клаус нашел время и приехал к ним в гости, а не просто оставил подарки у двери.

Производство: Норвегия / Cinenord Spillefilm
Продолжительность: 01:15:20
Перевод: профессиональный (многоголосый закадровый) [Игмар]
Файл
Качество: HDTV 1080i
Формат: MPEG-TS
Видео: AVC, 1920x1080 (16:9), 25.000 fps, 6699 kbps, 0.129 bit/pixel
Аудио: русский, MP2 2.0, 48 kHz, 192 kbps

MediaInfo

Формат : MPEG-TS
Размер файла : 3,82 Гбайт
Продолжительность : 1 ч. 15 м.
Режим общего битрейта : Переменный
Общий поток : 7251 Кбит/сек
Максимальный общий битрейт : 35,5 Мбит/сек
Видео
Идентификатор : 4113 (0x1011)
Идентификатор меню : 1 (0x1)
Формат : AVC
Формат/Информация : Advanced Video Codec
Профиль формата : High@L4
Параметр CABAC формата : Да
Параметр ReFrames формата : 4 кадра
Параметр GOP формата : M=4, N=30
Идентификатор кодека : 27
Продолжительность : 1 ч. 15 м.
Вид битрейта : Переменный
Битрейт : 6699 Кбит/сек
Максимальный битрейт : 40,0 Мбит/сек
Ширина : 1920 пикселей
Высота : 1080 пикселей
Соотношение сторон : 16:9
Частота кадров : 25,000 кадров/сек
Стандарт вещания : Component
Цветовое пространство : YUV
Субдискретизация насыщенности : 4:2:0
Битовая глубина : 8 бит
Тип развёртки : Чересстрочная
Порядок развёртки : Верхнее поле первое
Бит/(Пиксели*Кадры) : 0.129
Размер потока : 3,53 Гбайт (92%)
Цветовой диапазон : Limited
Основные цвета : BT.709
Характеристики трансфера : BT.709
Коэффициенты матрицы : BT.709
Аудио
Идентификатор : 4352 (0x1100)
Идентификатор меню : 1 (0x1)
Формат : MPEG Audio
Версия формата : Version 1
Профиль формата : Layer 2
Идентификатор кодека : 4
Продолжительность : 1 ч. 15 м.
Вид битрейта : Постоянный
Битрейт : 192 Кбит/сек
Каналы : 2 канала
Частота : 48,0 КГц
Метод сжатия : С потерями
Размер потока : 103 Мбайт (3%)
Язык : Russian

[Цитировать]



Показать сообщения:    

Текущее время: 25-Ноя 09:47

Часовой пояс: UTC + 6


Вы не можете начинать темы
Вы не можете отвечать на сообщения
Вы не можете редактировать свои сообщения
Вы не можете удалять свои сообщения
Вы не можете голосовать в опросах
Вы не можете прикреплять файлы к сообщениям
Вы не можете скачивать файлы

!ВНИМАНИЕ!
Сайт не предоставляет электронные версии произведений, а занимается лишь коллекционированием и каталогизацией ссылок, присылаемых и публикуемых на форуме нашими читателями. Если вы являетесь правообладателем какого-либо представленного материала и не желаете, чтобы ссылка на него находилась в нашем каталоге, свяжитесь с нами, и мы незамедлительно удалим ее. Файлы для обмена на трекере предоставлены пользователями сайта, и администрация не несет ответственности за их содержание. Просьба не заливать файлы, защищенные авторскими правами, а также файлы нелегального содержания!