[ Сегодня идет свободное скачивание без начисления Download ]


Статистика раздачи
Скачал: [ 6 ]
 
   
 
 
 
 
Дикая история / El bar
«Заказ кофе может стоить вам жизни»
Год выпуска: 2017
Страна: Испания, Аргентина
Производство: Atresmedia Cine, El Bar Producciones, Nadie es Perfecto, Pampa Films, Pokeepsie Films
Жанр: Ужасы, триллер, комедия
Режиссёр: Алекс де ла Иглесиа
В ролях: Бланка Суарес, Марио Касас, Кармен Мачи, Секун де ла Роса, Хайме Ордоньес, Тереле Павес, Хоакин Климент, Алехандро Авада, Хорди Агилар, Диего Брагуински
Перевод: Любительский (многоголосый закадровый) [Синема УС]
Субтитры: Отсутствуют
Продолжительность: 01:43:22
Описание: Блондинка, хипстер, бизнесмен, бомж — разношерстная группа изолирована в кафе, когда всех выходящих из него начинает обстреливать снайпер. Выйти наружу смертельно опасно, но и внутри страсти разгораются нешуточные. Обстановка накаляется до предела, когда предположение, что главный источник угрозы находится внутри, находит подтверждение. Больше беспредела, ведь заказ кофе может стоить вам жизни!

Доп. информация: Релиз с рекламой!
Формат: AVI
Качество: HDRip
Видео кодек: XviD
Аудио кодек: AС3
Видео: 720x304 (2.35:1), 24.000 fps, XviD ~ 1 561 kbps avg, 0.297 bit/pixel
Аудио: AC3, 48 kHz, 2 ch, ~ 448.00 kbps avg
Дата премьеры (мир): 15 февраля 2017
Дата премьеры (РФ): 13 июля 2017

MI

General
Complete name                  : The.bar.2017.P.HDRip.14OOMB_KOSHARA.avi
Format                         : AVI
Format/Info                    : Audio Video Interleave
File size                      : 1.46 GiB
Duration                       : 1 h 43 min
Overall bit rate               : 2 019 kb/s
Writing application            : VirtualDubMod 1.5.10.2 (build 2540/release)
Writing library                : VirtualDubMod build 2540/release
Video
ID                             : 0
Format                         : MPEG-4 Visual
Format profile                 : Advanced Simple@L5
Format settings, BVOP          : 2
Format settings, QPel          : No
Format settings, GMC           : No warppoints
Format settings, Matrix        : Default (MPEG)
Codec ID                       : XVID
Codec ID/Hint                  : XviD
Duration                       : 1 h 43 min
Bit rate                       : 1 561 kb/s
Width                          : 720 pixels
Height                         : 304 pixels
Display aspect ratio           : 2.35:1
Frame rate                     : 24.000 FPS
Color space                    : YUV
Chroma subsampling             : 4:2:0
Bit depth                      : 8 bits
Scan type                      : Progressive
Compression mode               : Lossy
Bits/(Pixel*Frame)             : 0.297
Stream size                    : 1.13 GiB (77%)
Writing library                : XviD 1.2.1 (UTC 2008-12-04)
Audio
ID                             : 1
Format                         : AC-3
Format/Info                    : Audio Coding 3
Format settings, Endianness    : Big
Codec ID                       : 2000
Duration                       : 1 h 43 min
Bit rate mode                  : Constant
Bit rate                       : 448 kb/s
Channel(s)                     : 2 channels
Channel positions              : Front: L R
Sampling rate                  : 48.0 kHz
Frame rate                     : 31.250 FPS (1536 spf)
Bit depth                      : 16 bits
Compression mode               : Lossy
Stream size                    : 331 MiB (22%)
Alignment                      : Split accross interleaves
Interleave, duration           : 42  ms (1.00 video frame)
Interleave, preload duration   : 500  ms
Service kind                   : Complete Main

Скриншоты

[Цитировать]



Показать сообщения:    

Текущее время: 24-Сен 03:48

Часовой пояс: UTC + 6


Вы не можете начинать темы
Вы не можете отвечать на сообщения
Вы не можете редактировать свои сообщения
Вы не можете удалять свои сообщения
Вы не можете голосовать в опросах
Вы не можете прикреплять файлы к сообщениям
Вы не можете скачивать файлы

!ВНИМАНИЕ!
Сайт не предоставляет электронные версии произведений, а занимается лишь коллекционированием и каталогизацией ссылок, присылаемых и публикуемых на форуме нашими читателями. Если вы являетесь правообладателем какого-либо представленного материала и не желаете, чтобы ссылка на него находилась в нашем каталоге, свяжитесь с нами, и мы незамедлительно удалим ее. Файлы для обмена на трекере предоставлены пользователями сайта, и администрация не несет ответственности за их содержание. Просьба не заливать файлы, защищенные авторскими правами, а также файлы нелегального содержания!