[ Сегодня идет свободное скачивание без начисления Download ]


Статистика раздачи
Качаю: [ 1 ]
Скачал: [ 19 ]
 
   
 
 
 
 
Несломленный [1-4 из 4] (2015) SATRip Оригинальное название: Несломленный
Год выпуска: 2015
Жанр: Драма, криминал, экранизация
Выпущено: Казахстан, Компания "Arai Production"
Режиссер: Виржиния Восгиморукиан
В ролях: Азиз Бейшеналиев, Дмитрий Скирта, Санжар Мадиев, Гани Кулжанов, Карлыгаш Исабекова, Гульнара Дусматова, Асель Садвакасова, Айнур Ниязова, Турар Давильбеков, Сергей Уфимцев, Михаил Токарев, Айсулу Азимбаева, Илья Садыков, Жандос Айбасов, Владимир Крылов (III), Ирина Кельблер
О фильме: Молодая республика Казахстан живет новой жизнью. Сколачиваются первые капиталы, меняется сознание людей. Как воплощение новой жизни - четыре лучших друга - Мара, Дос, Павел и Данияр. Главный герой Данияр стоит на пороге семейного счастья. Казалось бы, его ждет счастливая, размеренная жизнь... Но реальность оказывается иной, также как и Эдмона Дантеса, у главного героя впереди лишение свободы, забвение, боль и жажда жестокой мести. …Спустя 20 лет в Алматы приезжает таинственный бизнесмен. Его баснословное состояние открывает двери домов самых влиятельных людей города. Он ищет встречи с ними для того, чтобы вернуть старые долги.
Качество: SATRip
Видео: XviD, ~ 1550 Кбит/с, 720x400
Аудио: AC3, 2 ch, 192 Кбит/с
Продолжительность: 4 х ~ 00:55:00
Язык: Русский

MediaInfo:

Общее
Полное имя : D:\моё видио\Несломленный.2015.SATRip.Files-x\01.Несломленный.2015.SATRip.Files-x.avi
Формат : AVI
Формат/Информация : Audio Video Interleave
Размер файла : 700 Мбайт
Продолжительность : 56 м.
Общий поток : 1746 Кбит/сек
Программа кодирования : VirtualDubMod 1.5.10.3 | www.virtualdub-fr.org || (build 2550/release)
Библиотека кодирования : VirtualDubMod build 2550/release
Видео
Идентификатор : 0
Формат : MPEG-4 Visual
Профиль формата : Advanced Simple@L5
Параметр BVOP формата : 1
Параметр QPel формата : Нет
Параметр GMC формата : Без точки перехода
Параметр матрицы формата : Выборочная
Идентификатор кодека : XVID
Идентификатор кодека/Подсказка : XviD
Продолжительность : 56 м.
Битрейт : 1545 Кбит/сек
Ширина : 720 пикселей
Высота : 400 пикселей
Соотношение сторон : 16:9
Частота кадров : 25,000 кадров/сек
Цветовое пространство : YUV
Субдискретизация насыщенности : 4:2:0
Битовая глубина : 8 бит
Тип развёртки : Прогрессивная
Метод сжатия : С потерями
Бит/(Пиксели*Кадры) : 0.215
Размер потока : 619 Мбайт (88%)
Библиотека кодирования : XviD 73
Аудио
Идентификатор : 1
Формат : AC-3
Формат/Информация : Audio Coding 3
Расширение режима : CM (complete main)
Параметр Endianness формата : Big
Идентификатор кодека : 2000
Продолжительность : 56 м.
Вид битрейта : Постоянный
Битрейт : 192 Кбит/сек
Каналы : 2 канала
Расположение каналов : Front: L R
Частота : 48,0 КГц
Битовая глубина : 16 бит
Метод сжатия : С потерями
Размер потока : 77,0 Мбайт (11%)
Выравнивание : Разделение по промежуткам
Продолжительность промежутка : 40 мс. (1,00 видеокадр)
Время предзагрузки промежутка : 500 мс.

Скриншоты

[Цитировать]



Показать сообщения:    

Текущее время: 23-Ноя 04:08

Часовой пояс: UTC + 6


Вы не можете начинать темы
Вы не можете отвечать на сообщения
Вы не можете редактировать свои сообщения
Вы не можете удалять свои сообщения
Вы не можете голосовать в опросах
Вы не можете прикреплять файлы к сообщениям
Вы не можете скачивать файлы

!ВНИМАНИЕ!
Сайт не предоставляет электронные версии произведений, а занимается лишь коллекционированием и каталогизацией ссылок, присылаемых и публикуемых на форуме нашими читателями. Если вы являетесь правообладателем какого-либо представленного материала и не желаете, чтобы ссылка на него находилась в нашем каталоге, свяжитесь с нами, и мы незамедлительно удалим ее. Файлы для обмена на трекере предоставлены пользователями сайта, и администрация не несет ответственности за их содержание. Просьба не заливать файлы, защищенные авторскими правами, а также файлы нелегального содержания!