[ Сегодня идет свободное скачивание без начисления Download ]


Статистика раздачи
Скачал: [ 1 ]
 
   
 
 
 
 
Механическая планета / Clockwork Planet
[S01]
- Информация:
Название: Механическая планета
Оригинальное название: Clockwork Planet
Год выхода: 2017
Жанр: фэнтези, фантастика
Режиссер: Нагасава Цуёси
Художник: Кай Масатоси, Кубота Масахиро
В ролях: Нандзё Ёсино, Какума Ай, Ониси Саори, Мацуда Кэнъитиро
О фильме:
Около тысячи лет тому назад Земля была разрушена. Однако, некий выдающийся человек, известный как Y, смог восстановить планету. Он переделал ее в огромный механизм, состоящий из великого множества шестеренок, за что последний и получил свое название — «механическая планета». На поверхности этих шестерен строились различные города. Но с того момента, как Землю перестроили, все технологии, которые вырабатывали электромагнетизм, поставили под запрет, из-за того, что они мешали нормальной работе шестерней.Наото Миура — обычный школьник, увлекающийся механизмами. Однажды, на его дом падает древний андроид по имени Рюзу, разработанный тем самым гениальным человеком Y. Наото удается отремонтировать Рюзу и вновь запустить ее, после чего она признает в нем своего нового хозяина. Позже выясняется, что Наото может определять малейшие неисправности в механизмах, полагаясь лишь на свой слух, и делает он это во много раз лучше профессионалов. Чем же закончится эта механическая история?
Страна: Япония
Студия: Xebec
Продолжительность: 00:24:10
Язык: Русский, Японский
Перевод: Любительский (двухголосый, закадровый)
Файл:
Качество: WEBRip
Формат: MKV
Видео кодек: H.264
Аудио кодек: AAC
Видео: 1280x720, 23.976 fps, 1776 kbps
Аудио RUS: 48.0 kHz, AAC, 2 ch, 192 kbps - SHIZA Project
Аудио JAP: 44.1 kHz, AAC, 2 ch, 128 kbps
Субтитры: русские (встроенные надписи, ASS)
Субтитры: русские (встроенные полный перевод, ASS) - Elven_tankman & Shifroval

Список серий

01. Механизм судьбы.
02. Зачистка.
03. Конфликт.
04. Фантомный механизм.
05. Тришула. Та, кто уничтожает.
06. Глубоко под землёй.
07. Нападение на Составной район.
08. Яцукахаги.
09. Преступление.
10. Прогрессор.
11. Теория Y.
12. Стальной маятник.

Дополнительная информация

Релиз от:
Озвучивание: nDrOiDze, Viki
Перевод: Sovet Romantica (01-06), Elven_Tankman & GMC (07-12)
Тайминг и работа со звуком: Daelit

Скриншоты

MediaInfo

General
Format : Matroska
Format version : Version 4 / Version 2
File size : 363 MiB
Duration : 24 min
Overall bit rate : 2 097 kb/s
Encoded date : UTC 2017-07-09 04:29:34
Writing application : mkvmerge v8.3.0 ('Over the Horizon') 64bit
Writing library : libebml v1.3.1 + libmatroska v1.4.2
Attachments : OpenSans-Semibold.ttf
Video
ID : 1
Format : AVC
Format/Info : Advanced Video Codec
Format profile : High@L4
Format settings, CABAC : Yes
Format settings, ReFrames : 6 frames
Codec ID : V_MPEG4/ISO/AVC
Duration : 24 min
Bit rate : 1 776 kb/s
Width : 1 280 pixels
Height : 720 pixels
Display aspect ratio : 16:9
Frame rate mode : Variable
Frame rate : 23.976 (23976/1000) FPS
Color space : YUV
Chroma subsampling : 4:2:0
Bit depth : 8 bits
Scan type : Progressive
Bits/(Pixel*Frame) : 0.080
Stream size : 306 MiB (85%)
Writing library : x264 core 120 r2120 0c7dab9
Encoding settings : cabac=1 / ref=6 / deblock=1:1:1 / analyse=0x3:0x113 / me=umh / subme=8 / psy=1 / psy_rd=0.40:0.00 / mixed_ref=1 / me_range=16 / chroma_me=1 / trellis=1 / 8x8dct=1 / cqm=0 / deadzone=21,11 / fast_pskip=1 / chroma_qp_offset=-2 / threads=4 / sliced_threads=0 / nr=0 / decimate=1 / interlaced=0 / bluray_compat=0 / constrained_intra=0 / bframes=3 / b_pyramid=2 / b_adapt=2 / b_bias=0 / direct=3 / weightb=1 / open_gop=0 / weightp=2 / keyint=250 / keyint_min=23 / scenecut=40 / intra_refresh=0 / rc_lookahead=50 / rc=2pass / mbtree=1 / bitrate=1776 / ratetol=1.0 / qcomp=0.60 / qpmin=0 / qpmax=69 / qpstep=4 / cplxblur=20.0 / qblur=0.5 / vbv_maxrate=3552 / vbv_bufsize=8880 / nal_hrd=none / ip_ratio=1.40 / aq=1:0.60
Default : Yes
Forced : No
Audio #1
ID : 2
Format : AAC
Format/Info : Advanced Audio Codec
Format profile : LC
Codec ID : A_AAC
Duration : 24 min
Bit rate : 192 kb/s
Channel(s) : 2 channels
Channel positions : Front: L R
Sampling rate : 48.0 kHz
Frame rate : 46.875 FPS (1024 spf)
Compression mode : Lossy
Stream size : 33.2 MiB (9%)
Title : SHIZA Project
Language : Russian
Default : Yes
Forced : No
Audio #2
ID : 3
Format : AAC
Format/Info : Advanced Audio Codec
Format profile : LC
Codec ID : A_AAC
Duration : 24 min
Bit rate : 128 kb/s
Channel(s) : 2 channels
Channel positions : Front: L R
Sampling rate : 44.1 kHz
Frame rate : 43.066 FPS (1024 spf)
Compression mode : Lossy
Stream size : 22.1 MiB (6%)
Title : Original
Language : Japanese
Default : No
Forced : No
Text #1
ID : 4
Format : ASS
Codec ID : S_TEXT/ASS
Codec ID/Info : Advanced Sub Station Alpha
Duration : 23 min
Bit rate : 11 b/s
Count of elements : 22
Compression mode : Lossless
Stream size : 2.02 KiB (0%)
Title : Надписи
Language : Russian
Default : Yes
Forced : No
Text #2
ID : 5
Format : ASS
Codec ID : S_TEXT/ASS
Codec ID/Info : Advanced Sub Station Alpha
Duration : 24 min
Bit rate : 119 b/s
Count of elements : 300
Compression mode : Lossless
Stream size : 21.1 KiB (0%)
Title : Полные субтитры
Language : Russian
Default : No
Forced : No

[Цитировать]



Показать сообщения:    

Текущее время: 21-Ноя 12:25

Часовой пояс: UTC + 6


Вы не можете начинать темы
Вы не можете отвечать на сообщения
Вы не можете редактировать свои сообщения
Вы не можете удалять свои сообщения
Вы не можете голосовать в опросах
Вы не можете прикреплять файлы к сообщениям
Вы не можете скачивать файлы

!ВНИМАНИЕ!
Сайт не предоставляет электронные версии произведений, а занимается лишь коллекционированием и каталогизацией ссылок, присылаемых и публикуемых на форуме нашими читателями. Если вы являетесь правообладателем какого-либо представленного материала и не желаете, чтобы ссылка на него находилась в нашем каталоге, свяжитесь с нами, и мы незамедлительно удалим ее. Файлы для обмена на трекере предоставлены пользователями сайта, и администрация не несет ответственности за их содержание. Просьба не заливать файлы, защищенные авторскими правами, а также файлы нелегального содержания!