[ Сегодня идет свободное скачивание без начисления Download ]


Статистика раздачи
Скачал: [ 12 ]
 
   
 
 
 
 
Ловкость / Sleight (2016) BDRip 720p | L Год выпуска: 2016
Страна: США
Производство: Diablo Entertainment (II)
Жанр: Фантастика, боевик, триллер, драмаФ
Продолжительность: 01:29:43
Режиссёр: Джастин Диллард
В ролях: Джейкоб Латимор, Сейшелл Гэбриел, Дьюли Хилл, Сторм Рейд, Сашир Замата, Майкл Виллар, Брэндон Джонсон, Камерон Эспозито, Эндрю Фицпатрик, Джей Уокер
Перевод: Любительский (многоголосый закадровый) [GreenРай Studio]
Субтитры: Отсутствуют
Описание: Молодой уличный фокусник Бо вынужден взять на себя заботу о младшей сестре после смерти матери. Парень отказывается от стипендии и вместо учёбы днём показывает фокусы на улице, а вечером продёт наркотики. Он работает на Анджело, и когда на местный рынок без спросу выходит конкурирующая группировка, босс вынуждает Бо заняться не только продажей.

Доп. информация: Релиз с рекламой!
Формат: MKV
Качество: BDRip 720p
Видео: 1280x528 (2.40:1), 23.976 fps, AVC ~ 4 000 kbps avg, 0.247 bit/pixel
Аудио: MP3, 48 kHz, 2 ch, ~ 320.00 kbps avg

MI

General
Unique ID                      : 253347210463228877935567756721335754748 (0xBE98E5DC7FF67C48B588E210626ADFFC)
Complete name                  : Sleight.2017.P.BDRip.720p.mkv
Format                         : Matroska
Format version                 : Version 4 / Version 2
File size                      : 2.60 GiB
Duration                       : 1 h 29 min
Overall bit rate mode          : Constant
Overall bit rate               : 4 142 kb/s
Encoded date                   : UTC 2017-08-18 16:40:56
Writing application            : mkvmerge v8.3.0 ('Over the Horizon') 64bit
Writing library                : libebml v1.3.1 + libmatroska v1.4.2
Video
ID                             : 1
Format                         : AVC
Format/Info                    : Advanced Video Codec
Format profile                 : Main@L3.1
Format settings, CABAC         : Yes
Format settings, RefFrames     : 3 frames
Format settings, GOP           : M=4, N=15
Codec ID                       : V_MPEG4/ISO/AVC
Duration                       : 1 h 29 min
Bit rate mode                  : Constant
Bit rate                       : 4 000 kb/s
Width                          : 1 280 pixels
Height                         : 528 pixels
Display aspect ratio           : 2.40:1
Frame rate mode                : Constant
Frame rate                     : 23.976 (23976/1000) FPS
Standard                       : NTSC
Color space                    : YUV
Chroma subsampling             : 4:2:0
Bit depth                      : 8 bits
Scan type                      : Progressive
Bits/(Pixel*Frame)             : 0.247
Stream size                    : 2.39 GiB (92%)
Language                       : English
Default                        : Yes
Forced                         : No
Color range                    : Limited
Audio
ID                             : 2
Format                         : MPEG Audio
Format version                 : Version 1
Format profile                 : Layer 3
Mode                           : Joint stereo
Codec ID                       : A_MPEG/L3
Codec ID/Hint                  : MP3
Duration                       : 1 h 29 min
Bit rate mode                  : Constant
Bit rate                       : 320 kb/s
Channel(s)                     : 2 channels
Sampling rate                  : 48.0 kHz
Frame rate                     : 41.667 FPS (1152 SPF)
Compression mode               : Lossy
Stream size                    : 205 MiB (8%)
Default                        : Yes
Forced                         : No

[Цитировать]



Показать сообщения:    

Текущее время: 13-Дек 00:06

Часовой пояс: UTC + 6


Вы не можете начинать темы
Вы не можете отвечать на сообщения
Вы не можете редактировать свои сообщения
Вы не можете удалять свои сообщения
Вы не можете голосовать в опросах
Вы не можете прикреплять файлы к сообщениям
Вы не можете скачивать файлы

!ВНИМАНИЕ!
Сайт не предоставляет электронные версии произведений, а занимается лишь коллекционированием и каталогизацией ссылок, присылаемых и публикуемых на форуме нашими читателями. Если вы являетесь правообладателем какого-либо представленного материала и не желаете, чтобы ссылка на него находилась в нашем каталоге, свяжитесь с нами, и мы незамедлительно удалим ее. Файлы для обмена на трекере предоставлены пользователями сайта, и администрация не несет ответственности за их содержание. Просьба не заливать файлы, защищенные авторскими правами, а также файлы нелегального содержания!