[ Сегодня идет свободное скачивание без начисления Download ]


Статистика раздачи
Буду качать: [ 1 ]
Скачал: [ 5 ]
 
   
 
 
 
 
Копье судьбы / La lance de la destinée / Lance of Longinus [S01] (2007) SATRip Информация о фильме
Название: Копье судьбы
Оригинальное название: La lance de la destinée / Lance of Longinus
Год выхода: 2007
Жанр: триллер, драма, криминал, детектив, приключения
Режиссер: Денни Бери / Dennis Berry
В ролях: Элен Сёзаре, Макс фон Тун, Жак Вебер, Жак Перрен, Наташа Линдинжер, Микаэль Коэн, Джузеппе Солери, Серена Аутьери, Франсуа Леванталь, Юрген Хайнрих
О фильме:
По преданию, римский воин Лонгин пронзил копьём ребра Иисуса Христа, чтобы убедиться в его смерти. На копье навсегда осталась запёкшаяся кровь Спасителя… Париж, наши дни. Археолог Софи обнаруживает могилу наполеоновского генерала, а в ней — тетрадь, приводящую её к Священному копью Лонгина. Неожиданная находка переворачивает жизнь девушки — общество сатанистов начинает охоту за реликвией. Софи решает, что копьё не должно попасть в руки злодеев….

Страна: Франция, Германия, Бельгия
Продолжительность: 01:26:55
Перевод: Профессиональный многоголосый закадровый [ТК Культура]
Файл
Кодек: XviD / MP3
Качество: SATRip
Видео: Xvid 704x384 25.00fps 2108kbps [Bits/(Pixel*Frame): 0.312]
Звук: MPEG Audio Layer 3 48000Hz stereo 128kbps

Скриншоты

MediaInfo

Complete name : D:Kopie SudbiKopie Sudbi-01.avi
Format : AVI
Format/Info : Audio Video Interleave
File size : 1.36 GiB
Duration : 1h 26mn
Overall bit rate : 2 247 Kbps
Writing application : VirtualDubMod 1.5.10.2 (build 2540/release)
Writing library : VirtualDubMod build 2540/release
Video
ID : 0
Format : MPEG-4 Visual
Format profile : Advanced Simple@L5
Format settings, BVOP : Yes
Format settings, QPel : No
Format settings, GMC : No warppoints
Format settings, Matrix : Default (H.263)
Muxing mode : Packed bitstream
Codec ID : XVID
Codec ID/Hint : XviD
Duration : 1h 26mn
Bit rate : 2 109 Kbps
Width : 704 pixels
Height : 384 pixels
Display aspect ratio : 16:9
Frame rate : 25.000 fps
Resolution : 8 bits
Colorimetry : 4:2:0
Scan type : Progressive
Bits/(Pixel*Frame) : 0.312
Stream size : 1.28 GiB (94%)
Writing library : XviD 1.2.1 (UTC 2008-12-04)
Audio
ID : 1
Format : MPEG Audio
Format version : Version 1
Format profile : Layer 3
Mode : Joint stereo
Format_Settings_ModeExtension : MS Stereo
Codec ID : 55
Codec ID/Hint : MP3
Duration : 1h 26mn
Bit rate mode : Constant
Bit rate : 128 Kbps
Channel(s) : 2 channels
Sampling rate : 48.0 KHz
Stream size : 79.6 MiB (6%)
Alignment : Aligned on interleaves
Interleave, duration : 40 ms (1.00 video frame)
Interleave, preload duration : 504 ms

[Цитировать]



Показать сообщения:    

Текущее время: 14-Дек 19:06

Часовой пояс: UTC + 6


Вы не можете начинать темы
Вы не можете отвечать на сообщения
Вы не можете редактировать свои сообщения
Вы не можете удалять свои сообщения
Вы не можете голосовать в опросах
Вы не можете прикреплять файлы к сообщениям
Вы не можете скачивать файлы

!ВНИМАНИЕ!
Сайт не предоставляет электронные версии произведений, а занимается лишь коллекционированием и каталогизацией ссылок, присылаемых и публикуемых на форуме нашими читателями. Если вы являетесь правообладателем какого-либо представленного материала и не желаете, чтобы ссылка на него находилась в нашем каталоге, свяжитесь с нами, и мы незамедлительно удалим ее. Файлы для обмена на трекере предоставлены пользователями сайта, и администрация не несет ответственности за их содержание. Просьба не заливать файлы, защищенные авторскими правами, а также файлы нелегального содержания!