[ Сегодня идет свободное скачивание без начисления Download ]


Статистика раздачи
Буду качать: [ 1 ]
Качаю: [ 1 ]
Скачал: [ 26 ]
 
   
 
 
 
 
Жил-был кот / Rudolf The Black Cat (2016) HDRip
«Маленький герой - большие приключения»
Год выпуска: 2016
Страна: Япония, Канада
Жанр: Мультфильм, комедия, приключения
Продолжительность: 01:28:39
Режиссёры: Микинори Сакакибара, Кунихико Юяма
В ролях: Мао Иноуэ, Рёхэй Судзуки, Норито Ясима, Арата Фурута, Сандаю Докумамуси, Нана Мидзуки, Рио Сасаки, Юка Тэрасаки, Акио Оцука
Перевод: Профессиональный (полное дублирование) [Официальный звук]
Субтитры: Отсутствуют
Описание: История маленького чёрного котёнка с гордым именем Рудольф, жившего счастливо и спокойно ровно до тех пор, пока по роковой случайности он не оказался в неизвестном большом городе. Здесь герою придётся выживать без ласки и заботы хозяев, а ведь раньше он был твёрдо убежден, что всегда будет в полной безопасности.
Блуждая по улицам незнакомого города, Рудо встречает взрослого полосатого кота, нагоняющего ужас на всю округу. Он становится для малыша наставником, учит жизни на улице и помогает обрести новых друзей.

Доп. информация: Релиз без рекламы!
Формат: AVI
Качество: HDRip
Видео кодек: XviD
Аудио кодек: AС3
Видео: 720x400 (16:9), 23.976 fps, XviD ~ 2 005 kbps avg, 0.290 bit/pixel
Аудио: AC3, 48 kHz, 2 ch, ~ 192.00 kbps avg
Дата премьеры (мир): 22 июня 2016
Дата премьеры (РФ): 13 июля 2017

MI

General
Complete name                  : Zhil.byl.kot.2016.D.HDRip.avi
Format                         : AVI
Format/Info                    : Audio Video Interleave
File size                      : 1.37 GiB
Duration                       : 1 h 28 min
Overall bit rate               : 2 206 kb/s
Writing application            : VirtualDubMod 1.5.10.3 | www.virtualdub-fr.org || (build 2550/release)
Writing library                : VirtualDubMod build 2550/release
Video
ID                             : 0
Format                         : MPEG-4 Visual
Format profile                 : Advanced Simple@L5
Format settings, BVOP          : 2
Format settings, QPel          : No
Format settings, GMC           : No warppoints
Format settings, Matrix        : Default (MPEG)
Codec ID                       : XVID
Codec ID/Hint                  : XviD
Duration                       : 1 h 28 min
Bit rate                       : 2 005 kb/s
Width                          : 720 pixels
Height                         : 400 pixels
Display aspect ratio           : 16:9
Frame rate                     : 23.976 (24000/1001) FPS
Color space                    : YUV
Chroma subsampling             : 4:2:0
Bit depth                      : 8 bits
Scan type                      : Progressive
Compression mode               : Lossy
Bits/(Pixel*Frame)             : 0.290
Stream size                    : 1.24 GiB (91%)
Writing library                : XviD 1.2.1 (UTC 2008-12-04)
Audio
ID                             : 1
Format                         : AC-3
Format/Info                    : Audio Coding 3
Format settings, Endianness    : Big
Codec ID                       : 2000
Duration                       : 1 h 28 min
Bit rate mode                  : Constant
Bit rate                       : 192 kb/s
Channel(s)                     : 2 channels
Channel positions              : Front: L R
Sampling rate                  : 48.0 kHz
Frame rate                     : 31.250 FPS (1536 SPF)
Bit depth                      : 16 bits
Compression mode               : Lossy
Stream size                    : 122 MiB (9%)
Alignment                      : Split accross interleaves
Interleave, duration           : 42  ms (1.00 video frame)
Interleave, preload duration   : 500  ms
Service kind                   : Complete Main

Скриншоты


[Цитировать]



Показать сообщения:    

Текущее время: 17-Дек 18:05

Часовой пояс: UTC + 6


Вы не можете начинать темы
Вы не можете отвечать на сообщения
Вы не можете редактировать свои сообщения
Вы не можете удалять свои сообщения
Вы не можете голосовать в опросах
Вы не можете прикреплять файлы к сообщениям
Вы не можете скачивать файлы

!ВНИМАНИЕ!
Сайт не предоставляет электронные версии произведений, а занимается лишь коллекционированием и каталогизацией ссылок, присылаемых и публикуемых на форуме нашими читателями. Если вы являетесь правообладателем какого-либо представленного материала и не желаете, чтобы ссылка на него находилась в нашем каталоге, свяжитесь с нами, и мы незамедлительно удалим ее. Файлы для обмена на трекере предоставлены пользователями сайта, и администрация не несет ответственности за их содержание. Просьба не заливать файлы, защищенные авторскими правами, а также файлы нелегального содержания!