[ Сегодня идет свободное скачивание без начисления Download ]


Статистика раздачи
Качаю: [ 1 ]
Скачал: [ 12 ]
 
   
 
 
 
 
Мумия
The Mummy
- Информация:
Название: Мумия
Оригинальное название: The Mummy
Год выхода: 2017
Жанр: Ужасы, фэнтези, боевик, приключения
Режиссер: Алекс Куртцман
В ролях: Том Круз, Расселл Кроу, Аннабелль Уоллис, София Бутелла, Джейк Джонсон, Кортни Б. Вэнс, Марван Кензари, Саймон Атертон
О фильме:
События происходят в наши дни, герой Тома Круза по имени Ник Мортон – боец спецподразделения на Ближнем Востоке, который, преследуя боевиков, попадает в странный бункер, где обнаруживает мумию ассирийской царицы. Вместе с ученой-антропологом по имени Дженни Хэлси (Аннабелль Уоллис) и группой солдат ее тело самолетом перевозят в Лондон. В процессе транспортировки случается инцидент, и самолет терпит крушение, после которого выжить удается только Нику и...мумии. Как гласит история, в свое время судьба несправедливо обошлась с ней и теперь, спустя тысячи лет, богиня просыпается ото сна. Пролежав все это время под тоннами песка, она наконец-то обретает свободу, и теперь ей ничто не помешает обрушить всю свою ярость на человечество.

Страна: США
Студия: Perfect World Pictures, Sean Daniel Company, Universal Pictures
Продолжительность: 01:50:06
Перевод: Дублированный | iTunes
Файл:
Качество: BDRip 720p
Видео: MPEG-4 AVC, 1280x534, 7000 Kbit/s, 23.976 fps
Звук:
Аудио #01: 48 kHz, AC3, 5.1, 384 Kbps | Дублированный | iTunes | RUS |
Аудио #02: 48 kHz, AC3, 5.1, 640 Kbps | Оригинал | ENG |
Субтитры: Русские, Английские

Скриншоты

MediaInfo

General
Unique ID : 182670659181408496196214545721400831775 (0x896D16D8F256D42D8A97DA7546BD2F1F)
Complete name : C:UsersbattiDesktopThe.Mummy.2017.BDRip.720p.ExKinoRay.mkv
Format : Matroska
Format version : Version 4 / Version 2
File size : 6.05 GiB
Duration : 1 h 50 min
Overall bit rate : 7 863 kb/s
Encoded date : UTC 2017-08-30 12:44:27
Writing application : mkvmerge v15.0.0 ('Duel with the Devil') 64-bit
Writing library : libebml v1.3.5 + libmatroska v1.4.5
Video
ID : 1
Format : AVC
Format/Info : Advanced Video Codec
Format profile : High@L4.1
Format settings, CABAC : Yes
Format settings, RefFrames : 9 frames
Codec ID : V_MPEG4/ISO/AVC
Duration : 1 h 50 min
Bit rate : 7 000 kb/s
Width : 1 280 pixels
Height : 534 pixels
Display aspect ratio : 2.40:1
Frame rate mode : Constant
Frame rate : 23.976 (24000/1001) FPS
Color space : YUV
Chroma subsampling : 4:2:0
Bit depth : 8 bits
Scan type : Progressive
Bits/(Pixel*Frame) : 0.427
Stream size : 5.26 GiB (87%)
Writing library : x264 core 149 r2771+45 509cceb 7mod [8-bit@all X86_64]
Encoding settings : cabac=1 / ref=9 / deblock=1:-1:-1 / analyse=0x3:0x133 / me=umh / subme=11 / psy=1 / fade_compensate=0.00 / psy_rd=0.90:0.10 / mixed_ref=1 / me_range=32 / chroma_me=1 / trellis=2 / 8x8dct=1 / cqm=0 / deadzone=21,11 / fast_pskip=0 / chroma_qp_offset=-4 / threads=12 / lookahead_threads=2 / sliced_threads=0 / nr=0 / decimate=1 / interlaced=0 / bluray_compat=0 / constrained_intra=0 / fgo=0 / bframes=9 / b_pyramid=2 / b_adapt=2 / b_bias=0 / direct=3 / weightb=1 / open_gop=0 / weightp=2 / keyint=250 / keyint_min=23 / scenecut=40 / intra_refresh=0 / rc_lookahead=30 / rc=2pass / mbtree=0 / bitrate=7000 / ratetol=2.0 / qcomp=0.70 / qpmin=0:0:0 / qpmax=69:69:69 / qpstep=4 / cplxblur=20.0 / qblur=0.5 / vbv_maxrate=24000 / vbv_bufsize=24000 / nal_hrd=none / filler=0 / ip_ratio=1.40 / pb_ratio=1.30 / aq=3:1.00 / aq-sensitivity=10.00 / aq-factor=1.00:1.00:1.00 / aq2=0 / aq3=2:[0.50:0.50]:[0.50:0.50]:[0.50:0.50]:[0.50:0.50] / aq3-sensitivity=10.00 / aq3-factor=[1.00:1.00]:[1.00:1.00]:[1.00:1.00] / aq3-boundary=192:64:24
Language : English
Default : Yes
Forced : No
Audio #1
ID : 2
Format : AC-3
Format/Info : Audio Coding 3
Format settings, Endianness : Big
Codec ID : A_AC3
Duration : 1 h 50 min
Bit rate mode : Constant
Bit rate : 384 kb/s
Channel(s) : 6 channels
Channel positions : Front: L C R, Side: L R, LFE
Sampling rate : 48.0 kHz
Frame rate : 31.250 FPS (1536 SPF)
Bit depth : 16 bits
Compression mode : Lossy
Stream size : 302 MiB (5%)
Title : iTunes
Language : Russian
Service kind : Complete Main
Default : Yes
Forced : No
Audio #2
ID : 3
Format : AC-3
Format/Info : Audio Coding 3
Format settings, Endianness : Big
Codec ID : A_AC3
Duration : 1 h 50 min
Bit rate mode : Constant
Bit rate : 640 kb/s
Channel(s) : 6 channels
Channel positions : Front: L C R, Side: L R, LFE
Sampling rate : 48.0 kHz
Frame rate : 31.250 FPS (1536 SPF)
Bit depth : 16 bits
Compression mode : Lossy
Stream size : 504 MiB (8%)
Title : Original
Language : English
Service kind : Complete Main
Default : No
Forced : No
Text #1
ID : 4
Format : UTF-8
Codec ID : S_TEXT/UTF8
Codec ID/Info : UTF-8 Plain Text
Duration : 1 h 39 min
Bit rate : 64 b/s
Count of elements : 1033
Stream size : 46.9 KiB (0%)
Title : Full
Language : Russian
Default : No
Forced : No
Text #2
ID : 5
Format : UTF-8
Codec ID : S_TEXT/UTF8
Codec ID/Info : UTF-8 Plain Text
Duration : 1 h 36 min
Bit rate : 41 b/s
Count of elements : 1081
Stream size : 29.4 KiB (0%)
Title : Full
Language : English
Default : No
Forced : No
Text #3
ID : 6
Format : UTF-8
Codec ID : S_TEXT/UTF8
Codec ID/Info : UTF-8 Plain Text
Duration : 1 h 37 min
Bit rate : 49 b/s
Count of elements : 1327
Stream size : 35.5 KiB (0%)
Title : SDH
Language : English
Default : No
Forced : No
Text #4
ID : 7
Format : UTF-8
Codec ID : S_TEXT/UTF8
Codec ID/Info : UTF-8 Plain Text
Duration : 1 h 37 min
Bit rate : 73 b/s
Count of elements : 1357
Stream size : 52.5 KiB (0%)
Title : SDH Colored
Language : English
Default : No
Forced : No
Menu
00:00:00.000 : en:00:00:00.000
00:08:18.707 : en:00:08:18.707
00:13:18.923 : en:00:13:18.923
00:19:31.462 : en:00:19:31.462
00:24:40.145 : en:00:24:40.145
00:28:54.107 : en:00:28:54.107
00:35:41.389 : en:00:35:41.389
00:39:36.040 : en:00:39:36.040
00:47:00.067 : en:00:47:00.067
00:50:57.638 : en:00:50:57.638
00:56:49.740 : en:00:56:49.740
01:00:43.849 : en:01:00:43.849
01:08:58.009 : en:01:08:58.009
01:16:03.851 : en:01:16:03.851
01:19:38.440 : en:01:19:38.440
01:23:16.408 : en:01:23:16.408
01:26:26.848 : en:01:26:26.848
01:33:34.943 : en:01:33:34.943
01:37:02.984 : en:01:37:02.984
01:39:47.982 : en:01:39:47.982

Дополнительная информация

Автор:

[Цитировать]



Показать сообщения:    

Текущее время: 23-Фев 18:36

Часовой пояс: UTC + 6


Вы не можете начинать темы
Вы не можете отвечать на сообщения
Вы не можете редактировать свои сообщения
Вы не можете удалять свои сообщения
Вы не можете голосовать в опросах
Вы не можете прикреплять файлы к сообщениям
Вы не можете скачивать файлы

!ВНИМАНИЕ!
Сайт не предоставляет электронные версии произведений, а занимается лишь коллекционированием и каталогизацией ссылок, присылаемых и публикуемых на форуме нашими читателями. Если вы являетесь правообладателем какого-либо представленного материала и не желаете, чтобы ссылка на него находилась в нашем каталоге, свяжитесь с нами, и мы незамедлительно удалим ее. Файлы для обмена на трекере предоставлены пользователями сайта, и администрация не несет ответственности за их содержание. Просьба не заливать файлы, защищенные авторскими правами, а также файлы нелегального содержания!