[ Сегодня идет свободное скачивание без начисления Download ]


Статистика раздачи
Нет
 
   
 
 
 
 
Черная кровь (2017) WEB-DL 720p (серии 1-16 из 16) - Производство: Беларусь, Украина / Паламеда Продакшн
Жанр: мелодрама, драма
Режиссер: Алексей Карелин, Анна Ерофеева
Актеры: Мария Порошина, Татьяна Колганова, Дарья Щербакова, Олег Алмазов, Алексей Коряков, Петр Баранчеев, Алексей Демидов, Евгения Нохрина, Мария Пирогова, Дмитрий Пчела и др.
Описание:
Ольга и Ирина Котовы — сестры, дружно и счастливо жившие в своей деревне до того момента, пока не появился соседский парень Вячеслав. Они влюбляются в него обе с первого взгляда. Слава выбирает Ирину, и Ольга идет на отчаянный шаг — обращается к местной ведунье Глафире за любовным приворотом. Глафира предупреждает, что зелье «Черная кровь» изменит жизнь всей семьи, и короткое женское счастье Ольги грозит обернуться проклятием для всего клана, освободиться от которого будет практически невозможно. Снимет его только смерть бесконечно близкого человека…

Дата премьеры в России: 4 сентября 2017
Возраст: 12+ (зрителям, достигшим 12 лет)
Продолжительность: ~00:52:00 серия
Качество видео: WEB-DL
Язык озвучки: русский
Видео: AVC/H.264, 1280x720 (16:9), ~1335 Kbps
Аудио: AC3, 2 ch, 192 Kbps

Mediainfo:

Общее
Уникальный идентификатор : 190129635715402425793880263433019373015 (0x8F09A2C8A2FE9635CACBCC275846B5D7)
Полное имя : F:\Черная кровь (2017).by.Алехаndr\Серия 01.by.Алехаndr.mkv
Формат : Matroska
Версия формата : Version 4 / Version 2
Размер файла : 585 Мбайт
Продолжительность : 52 м. 31 с.
Общий поток : 1557 Кбит/сек
Программа кодирования : Lavf57.71.100
Библиотека кодирования : Lavf57.71.100
ErrorDetectionType : Per level 1
Видео
Идентификатор : 1
Формат : AVC
Формат/Информация : Advanced Video Codec
Профиль формата : Main@L3.1
Параметр CABAC формата : Да
Параметр RefFrames формата : 3 кадра
Идентификатор кодека : V_MPEG4/ISO/AVC
Продолжительность : 52 м. 31 с.
Битрейт : 1334 Кбит/сек
Ширина : 1280 пикселей
Высота : 720 пикселей
Соотношение сторон : 16:9
Режим частоты кадров : Постоянный
Частота кадров : 25,000 кадров/сек
Цветовое пространство : YUV
Субдискретизация насыщенности : 4:2:0
Битовая глубина : 8 бит
Тип развёртки : Прогрессивная
Бит/(Пиксели*Кадры) : 0.058
Размер потока : 501 Мбайт (86%)
Default : Да
Forced : Нет
Цветовой диапазон : Limited
Основные цвета : BT.709
Характеристики трансфера : BT.709
Коэффициенты матрицы : BT.709
Аудио
Идентификатор : 2
Формат : AC-3
Формат/Информация : Audio Coding 3
Параметр Endianness формата : Big
Идентификатор кодека : A_AC3
Продолжительность : 52 м. 31 с.
Вид битрейта : Постоянный
Битрейт : 192 Кбит/сек
Каналы : 1 канал
Расположение каналов : Front: C
Частота : 44,1 КГц
Частота кадров : 28,711 кадров/сек (1536 SPF)
Битовая глубина : 16 бит
Метод сжатия : С потерями
Задержка видео : -40 мс.
Размер потока : 72,1 Мбайт (12%)
Язык : unknown
ServiceKind/String : Complete Main
Default : Да
Forced : Нет

Внимание! Раздача ведётся путём добавления новых серий

Внимание! Раздача ведётся путём добавления новых серий; при каждом добавлении создаётся новый торрент.
Чтобы начать докачку новой серии, пользователям необходимо сделать следующее:
1. Остановить скачивание;
2. Удалить старый торрент у себя из клиента (старые серии удалять не надо);
3. Скачать новый торрент и запустить его у себя в клиенте вместо старого, при этом указать клиенту путь в старую папку куда и должно происходить скачивание новых серий. Ваш клиент при этом должен произвести хеширование (проверку) старой папки и будет докачивать только те серии, которых у вас ещё нет. Старые серии при этом не удаляются, а продолжают раздаваться! Eсли вы уже удалили старые серии, то предотвратить повторную закачку старых серий можно, отжав галочку в соответствующих местах при запуске нового торрента.
Скриншоты:

[Цитировать]



Показать сообщения:    

Текущее время: 24-Окт 05:35

Часовой пояс: UTC + 6


Вы не можете начинать темы
Вы не можете отвечать на сообщения
Вы не можете редактировать свои сообщения
Вы не можете удалять свои сообщения
Вы не можете голосовать в опросах
Вы не можете прикреплять файлы к сообщениям
Вы не можете скачивать файлы

!ВНИМАНИЕ!
Сайт не предоставляет электронные версии произведений, а занимается лишь коллекционированием и каталогизацией ссылок, присылаемых и публикуемых на форуме нашими читателями. Если вы являетесь правообладателем какого-либо представленного материала и не желаете, чтобы ссылка на него находилась в нашем каталоге, свяжитесь с нами, и мы незамедлительно удалим ее. Файлы для обмена на трекере предоставлены пользователями сайта, и администрация не несет ответственности за их содержание. Просьба не заливать файлы, защищенные авторскими правами, а также файлы нелегального содержания!