[ Сегодня идет свободное скачивание без начисления Download ]


Статистика раздачи
Скачал: [ 4 ]
 
   
 
 
 
 
2Pac: Легенда Год выпуска: 2017
Жанр: Драма, биография, музыка
Выпущено: США, Code Black Entertainment, Morgan Creek Productions, Program Pictures, Voltage Pictures
Режиссер: Бенни Бум
Продолжительность: 02:19:37
Перевод: Дублированный iTunes
В ролях: Деметриус Шипп мл., Данай Джекесай Гурира, Катерина Грэхэм, Хилл Харпер, Энни Илонзе, Лорен Кохэн, Джамал Вулард, Доминик Сантана, Кори Хардрикт, Клифтон Пауэлл, Джэми Гектор, Рэйвен Саймон Феррелл, Шанель Янг, Брэндон Сове, Джош Вентура, Райан Рётс, Брюс Дэвис, Том Тон, Брайан Курландер, Лиан Тони Амадо, Скотт Хантер, Дэвид Флэннери, Кендрик Кросс, Хоуп Эш, Харольд Хаус Мур, Джернел Ховард, Вернелл Варнадо, Дамита Джейн Ховард, Филип Дайдо, Ямал Уэверз, Малкольм Гринидж, Фил Армихо, Майкл Бисли
Рейтинг:

О фильме: Фильм посвящён судьбе и творчеству Тупака Шакура. Это правдивая история о том, как чернокожий выходец из гетто, участник криминальных разборок, неоднократно привлекавшийся к суду и развязавший смертельную войну рекорд-лейблов, становится настоящим голосом улиц и одним из самых влиятельных исполнителей в мировой рэп-культуре.
Качество: BDRip (AVC)
Видео: AVC, 1024x428 (2.35:1), 23.976 fps, 1 951 Kbps (0.186 bit/pixel)
Аудио: Русский (АС3, 6 ch, 384 Кбит/с)
Навигация по главам: есть
Релиз от

Скриншоты

ОтчетМедиаИнфо

Общее
Уникальный идентификатор : 253789577978133114621975845090799771748 (0xBEEE18438306885793A5DF99FEC1E064)
Полное имя : E:\All.Eyez.on.Me.2017.BDRip-AVC.Rip.by.White Smoke.R.G.Generalfilm.mkv
Формат : Matroska
Размер файла : 2,28 Гбайт
Продолжительность : 2 ч. 19 м.
Общий поток : 2336 Кбит/сек
Название фильма : All.Eyez.on.Me.2017.BDRip-AVC.Rip.by.White Smoke.R.G.Generalfilm.mkv
Дата кодирования : UTC 2017-09-10 13:14:41
Программа кодирования : mkvmerge v6.8.0 ('Theme for Great Cities') 64bit built on Mar 2 2014 21:34:26
Библиотека кодирования : libebml v1.3.0 + libmatroska v1.4.1
Видео
Идентификатор : 1
Формат : AVC
Формат/Информация : Advanced Video Codec
Профиль формата : High@L4.1
Параметр CABAC формата : Да
Параметр ReFrames формата : 12 кадры
Идентификатор кодека : V_MPEG4/ISO/AVC
Продолжительность : 2 ч. 19 м.
Битрейт : 1951 Кбит/сек
Ширина : 1024 пикс.
Высота : 428 пикс.
Соотношение сторон : 2,35:1
Частота кадров : 23,976 кадр/сек
Цветовое пространство : YUV
Подвыборка цветности : 4:2:0
Битовая глубина : 8 бит
Тип развёртки : Прогрессивная
Бит/(Пиксели*Кадры) : 0.186
Размер потока : 1,86 Гбайт (82%)
Библиотека кодирования : x264 core 148 r2638 7599210
Настройки программы : cabac=1 / ref=12 / deblock=1:-1:-2 / analyse=0x3:0x113 / me=umh / subme=11 / psy=1 / psy_rd=1.00:0.14 / mixed_ref=1 / me_range=32 / chroma_me=1 / trellis=2 / 8x8dct=1 / cqm=0 / deadzone=21,11 / fast_pskip=0 / chroma_qp_offset=-5 / threads=6 / lookahead_threads=1 / sliced_threads=0 / nr=0 / decimate=0 / interlaced=0 / bluray_compat=0 / constrained_intra=0 / bframes=10 / b_pyramid=2 / b_adapt=2 / b_bias=10 / direct=1 / weightb=0 / open_gop=0 / weightp=2 / keyint=240 / keyint_min=23 / scenecut=40 / intra_refresh=0 / rc_lookahead=40 / rc=2pass / mbtree=1 / bitrate=1951 / ratetol=1.0 / qcomp=0.70 / qpmin=0 / qpmax=69 / qpstep=4 / cplxblur=20.0 / qblur=0.5 / vbv_maxrate=50000 / vbv_bufsize=65500 / nal_hrd=none / filler=0 / ip_ratio=1.40 / aq=1:1.00
Аудио
Идентификатор : 2
Формат : AC-3
Формат/Информация : Audio Coding 3
Расширение режима : CM (complete main)
Идентификатор кодека : A_AC3
Продолжительность : 2 ч. 19 м.
Вид битрейта : Постоянный
Битрейт : 384 Кбит/сек
Канал(ы) : 6 канала(ов)
Расположение каналов : Front: L C R, Side: L R, LFE
Частота : 48,0 КГц
Битовая глубина : 16 бит
Метод сжатия : С потерями
Размер потока : 383 Мбайт (16%)
Заголовок : AC3, 6 ch, 384 Kbps, Dub, iTunes
Язык : Russian
Меню
00:00:00.000 : en:Chapter 01
00:08:11.240 : en:Chapter 02
00:18:13.258 : en:Chapter 03
00:26:49.899 : en:Chapter 04
00:35:10.691 : en:Chapter 05
00:44:50.104 : en:Chapter 06
00:52:41.533 : en:Chapter 07
01:01:27.934 : en:Chapter 08
01:09:20.489 : en:Chapter 09
01:19:04.656 : en:Chapter 10
01:27:41.547 : en:Chapter 11
01:35:07.410 : en:Chapter 12
01:44:51.952 : en:Chapter 13
01:52:30.994 : en:Chapter 14
02:03:28.484 : en:Chapter 15
02:14:28.977 : en:Chapter 16

[Цитировать]

Топик был перенесен из форума Новинки кинопроката 2017 в форум Фильмы от R.G.Generalfilm
kiryandr



Показать сообщения:    

Текущее время: 22-Сен 01:40

Часовой пояс: UTC + 6


Вы не можете начинать темы
Вы не можете отвечать на сообщения
Вы не можете редактировать свои сообщения
Вы не можете удалять свои сообщения
Вы не можете голосовать в опросах
Вы не можете прикреплять файлы к сообщениям
Вы не можете скачивать файлы

!ВНИМАНИЕ!
Сайт не предоставляет электронные версии произведений, а занимается лишь коллекционированием и каталогизацией ссылок, присылаемых и публикуемых на форуме нашими читателями. Если вы являетесь правообладателем какого-либо представленного материала и не желаете, чтобы ссылка на него находилась в нашем каталоге, свяжитесь с нами, и мы незамедлительно удалим ее. Файлы для обмена на трекере предоставлены пользователями сайта, и администрация не несет ответственности за их содержание. Просьба не заливать файлы, защищенные авторскими правами, а также файлы нелегального содержания!