[ Сегодня идет свободное скачивание без начисления Download ]


Статистика раздачи
Нет
 
   
 
 
 
 
Неоновая плоть / Carne de neon / Neon Flesh -Страна: Швеция, Франция, Испания, Аргентина
Жанр: триллер, драма, комедия, криминал
Год выпуска: 2010
Продолжительность: 01:41:51
Перевод: Профессиональный (многоголосый, закадровый) |Лицензия|
Cубтитры: нет-Режиссер: Пако Кабезас / Paco Cabezas-В ролях: Марио Касас, Винсент Ромеро, Лусиано Касерес, Макарена Гомес, Дамасо Конде, Ванесса Оливейра, Дарио Грандинетти, Бланка Суарес, Антонио де ла Торре, Анхела Молина-Описание: Рики вырос на улице в окружении проституток и наркоманов, после того как остался один в двенадцатилетнем возрасте. Теперь ему 23 года и он решает открыть бордель, клуб под названием «Хиросима», в качестве подарка матери проститутке, которая вот-вот выйдет из тюрьмы. Рики хочет, чтобы Пура руководила клубом и забыла о своем прошлом продажной женщины. В этом ему помогают многочисленные друзья, порой весьма эксцентричные. Рики пытается пробудить материнские чувства и любовь в душе Пуры, которая бросила его много лет назад. Однако добиться этого оказывается не так просто.- -Релиз от: -Автор рипа: Yarmak1988-Качество видео: HDRip |исходник: BDRip 720p|
Формат видео: AVI
Видео: 640x272 (1.35:1), 25.000 fps, XviD 65 ~886 kbps avg, 0.203 bit/pixel
Аудио: 48 kHz, MPEG Layer 3, 2 ch, 128.00 kbps Constant |Многоголосый закадровый|
Скачать: Сэмпл-

MediaInfo

General
Complete name : Neonovaja.plot.2010.P.HDRip.745GB_by_Yarmak23.avi
Format : AVI
Format/Info : Audio Video Interleave
File size : 745 MiB
Duration : 1h 41mn
Overall bit rate : 1 023 Kbps
Writing application : VirtualDubMod 1.5.10.3 | www.virtualdub-fr.org || (build 2550/release)
Writing library : VirtualDubMod build 2550/release
Video
ID : 0
Format : MPEG-4 Visual
Format profile : Advanced Simple@L5
Format settings, BVOP : 1
Format settings, QPel : No
Format settings, GMC : No warppoints
Format settings, Matrix : Custom
Codec ID : XVID
Codec ID/Hint : XviD
Duration : 1h 41mn
Bit rate : 886 Kbps
Width : 640 pixels
Height : 272 pixels
Display aspect ratio : 2.35:1
Frame rate : 25.000 fps
Color space : YUV
Chroma subsampling : 4:2:0
Bit depth : 8 bits
Scan type : Progressive
Compression mode : Lossy
Bits/(Pixel*Frame) : 0.203
Stream size : 645 MiB (87%)
Writing library : XviD 65
Audio
ID : 1
Format : MPEG Audio
Format version : Version 1
Format profile : Layer 3
Codec ID : 55
Codec ID/Hint : MP3
Duration : 1h 41mn
Bit rate mode : Constant
Bit rate : 128 Kbps
Channel(s) : 2 channels
Sampling rate : 48.0 KHz
Compression mode : Lossy
Stream size : 93.2 MiB (13%)
Alignment : Aligned on interleaves
Interleave, duration : 40 ms (1.00 video frame)
Interleave, preload duration : 504 ms
Writing library : LAME3.99r
Encoding settings : -m s -V 4 -q 2 -lowpass 17 -b 128

Скриншот c названием фильма

Скриншоты

Зрителям, достигшим 18 лет

[Цитировать]



Показать сообщения:    

Текущее время: 24-Авг 10:51

Часовой пояс: UTC + 6


Вы не можете начинать темы
Вы не можете отвечать на сообщения
Вы не можете редактировать свои сообщения
Вы не можете удалять свои сообщения
Вы не можете голосовать в опросах
Вы не можете прикреплять файлы к сообщениям
Вы не можете скачивать файлы

!ВНИМАНИЕ!
Сайт не предоставляет электронные версии произведений, а занимается лишь коллекционированием и каталогизацией ссылок, присылаемых и публикуемых на форуме нашими читателями. Если вы являетесь правообладателем какого-либо представленного материала и не желаете, чтобы ссылка на него находилась в нашем каталоге, свяжитесь с нами, и мы незамедлительно удалим ее. Файлы для обмена на трекере предоставлены пользователями сайта, и администрация не несет ответственности за их содержание. Просьба не заливать файлы, защищенные авторскими правами, а также файлы нелегального содержания!