[ Сегодня идет свободное скачивание без начисления Download ]


Статистика раздачи
Скачал: [ 2 ]
 
   
 
 
 
 
Киллджойс / Killjoys [3 сезон, серии 1-10 из 10] (2017) | WEB-DL 720p Название: Киллджойс
Оригинальное название: Killjoys
Год Выпуска: 2017
Жанр: фантастика
Выпущено: Канада
Режиссёр: Крис Грисмер, Паоло Барзмен, Энди Микита
В ролях: Том Эллисон, Тамсен МакДонаф, Аарон Эшмор, Роб Стюарт, Ханна Джон-Кэймен, Люк МакФарлейн, Сара Пауэр, Нора МакЛеллан, Морган Келли, Данка Щепанович, Фрэнк Мур
Описание: Сериал рассказывает о трио охотников за головами Джоне, Д’Эвинсе и Датче. Их команда промышляет охотой на преступников в далёкой галактике Квад, где вот-вот грянет классовая война. Герои поклялись друг другу, что не будут поддерживать ни одну из сторон конфликта, где бы они не оказались.

Качество: WEB-DL 720p (чистый видеоряд)
Видео: 1280x720, 23.976 fps, MPEG-4 AVC ~2500 kbps
Аудио #1: Русский (AC3, 2 ch, 384 Кбит/с)
Перевод: Профессиональный (многоголосый закадровый) (LostFilm)
Аудио #2: Английский (ЕAC3, 6 ch, 640 Кбит/с)
Субтитры: Английские
Продолжительность: 10 х ~00:45:00
Реклама: Полностью отсутствует

MediaInfo:

Общее
Уникальный идентификатор : 250196165442103805100864869604386244295 (0xBC3A0758DB121467AE69ADBCB1A986C7)
Полное имя : D:\Killjoys (Stason 03) AMZN WEBDL 720p GeneralFilm\Killjoys.S03E01.720p.AMZN.WEB-DL.GeneralFilm.mkv
Формат : Matroska
Версия формата : Version 4 / Version 2
Размер файла : 1,07 Гбайт
Продолжительность : 43 м. 3 с.
Режим общего битрейта : Переменный
Общий поток : 3564 Кбит/сек
Дата кодирования : UTC 2017-07-24 15:51:40
Программа кодирования : mkvmerge v7.7.0 ('Six Voices') 64bit built on Feb 28 2015 23:39:33
Библиотека кодирования : libebml v1.3.1 + libmatroska v1.4.2
Видео
Идентификатор : 1
Формат : AVC
Формат/Информация : Advanced Video Codec
Профиль формата : High@L3.1
Настройки формата : CABAC / 5 Ref Frames
Параметр CABAC формата : Да
Параметр RefFrames формата : 5 кадров
Идентификатор кодека : V_MPEG4/ISO/AVC
Продолжительность : 43 м. 4 с.
Вид битрейта : Переменный
Битрейт : 2469 Кбит/сек
Максимальный битрейт : 4500 Кбит/сек
Ширина : 1280 пикселей
Высота : 720 пикселей
Соотношение сторон : 16:9
Режим частоты кадров : Постоянный
Частота кадров : 23,976 (24000/1001) кадра/сек
Цветовое пространство : YUV
Субдискретизация насыщенности : 4:2:0
Битовая глубина : 8 бит
Тип развёртки : Прогрессивная
Бит/(Пиксели*Кадры) : 0.112
Размер потока : 761 Мбайт (69%)
Default : Да
Forced : Нет
Цветовой диапазон : Limited
Основные цвета : BT.709
Характеристики трансфера : BT.709
Коэффициенты матрицы : BT.709
Аудио #1
Идентификатор : 2
Формат : AC-3
Формат/Информация : Audio Coding 3
Параметр Endianness формата : Big
Идентификатор кодека : A_AC3
Продолжительность : 43 м. 3 с.
Вид битрейта : Постоянный
Битрейт : 384 Кбит/сек
Каналы : 2 канала
Расположение каналов : Front: L R
Частота : 48,0 КГц
Частота кадров : 31,250 кадров/сек (1536 SPF)
Битовая глубина : 16 бит
Метод сжатия : С потерями
Размер потока : 118 Мбайт (11%)
Язык : Russian
ServiceKind/String : Complete Main
Default : Да
Forced : Нет
Аудио #2
Идентификатор : 3
Формат : E-AC-3
Формат/Информация : Enhanced Audio Coding 3
Параметр Endianness формата : Big
Идентификатор кодека : A_EAC3
Продолжительность : 43 м. 3 с.
Вид битрейта : Постоянный
Битрейт : 640 Кбит/сек
Каналы : 6 каналов
Расположение каналов : Front: L C R, Side: L R, LFE
Частота : 48,0 КГц
Частота кадров : 187,500 кадров/сек (256 SPF)
Метод сжатия : С потерями
Размер потока : 197 Мбайт (18%)
Язык : English
ServiceKind/String : Complete Main
Default : Нет
Forced : Нет
Текст
Идентификатор : 4
Формат : UTF-8
Идентификатор кодека : S_TEXT/UTF8
Идентификатор кодека/Информация : UTF-8 Plain Text
Язык : English
Default : Нет
Forced : Нет

Скриншоты

Релиз от

[Цитировать]



Показать сообщения:    

Текущее время: 14-Дек 18:58

Часовой пояс: UTC + 6


Вы не можете начинать темы
Вы не можете отвечать на сообщения
Вы не можете редактировать свои сообщения
Вы не можете удалять свои сообщения
Вы не можете голосовать в опросах
Вы не можете прикреплять файлы к сообщениям
Вы не можете скачивать файлы

!ВНИМАНИЕ!
Сайт не предоставляет электронные версии произведений, а занимается лишь коллекционированием и каталогизацией ссылок, присылаемых и публикуемых на форуме нашими читателями. Если вы являетесь правообладателем какого-либо представленного материала и не желаете, чтобы ссылка на него находилась в нашем каталоге, свяжитесь с нами, и мы незамедлительно удалим ее. Файлы для обмена на трекере предоставлены пользователями сайта, и администрация не несет ответственности за их содержание. Просьба не заливать файлы, защищенные авторскими правами, а также файлы нелегального содержания!