[ Сегодня идет свободное скачивание без начисления Download ]


Статистика раздачи
Скачал: [ 13 ]
 
   
 
 
 
 
Голем
The Limehouse Golem
- Информация:
Страна: Великобритания
Жанр: ужасы, триллер
Продолжительность: 01:48:46
Год выпуска: 2017
Озвучание: Профессиональное, многоголосое, закадровое (AlexFilm)
Оригинальная аудиодорожка: Английская
Режиссёр: Хуан Карлос Медина
В ролях: Оливия Кук, Билл Найи, Дуглас Бут, Эдди Марсан, Мария Вальверде, Сэм Рид, Пол Риттер, Дэниэл Мейс, Питер Салливан, Адам Браун и др.
Описание:
Викторианский Лондон, 1880 год. Опасный район города Лаймхауз потрясает серия жестоких убийств. Напуганные до смерти жители полагают, что в этих чудовищных и безжалостных преступлениях замешан не кто иной, как голем — глиняное существо из мифологии, оживляемое при помощи магии. Панический страх растет, убийства продолжаются. Полиция не знает, что делать, и в качестве козла отпущения главным в этом деле назначается опытный детектив, инспектор Килдэр.

Файл:
Качество: WEB-DL 1080p
Формат: MKV
Видео: 1912x796 (2,40:1), 23.976 fps, MPEG-4 AVC ~4484 kbps avg, 0.123 bit/pixel
Аудио Rus: 48 kHz, AC3 Dolby Digital, 3/2 (L,C,R,l,r) + LFE ch, ~384.00 kbps avg
Аудио Eng: 48 kHz, AC3 Dolby Digital, 3/2 (L,C,R,l,r) + LFE ch, ~384.00 kbps avg
Субтитры: Английские

Сэмпл:

Дополнительная информация


Перевод: Леонид Дмитириев
Монтаж и сведение звука: Михаил Суслов
Озвучание:
Екатерина Муравицкая
Алена Левичева
Владимир Курдов
Константин Федосеев
Кирилл Патрино
Леонид Дмитриев
Михаил Суслов

MediaInfo

Формат : Matroska
Версия формата : Version 4 / Version 2
Размер файла : 4,07 Гбайт
Продолжительность : 1 ч. 48 м.
Общий поток : 5359 Кбит/сек
Название фильма : The Limehouse Golem @ AlexFilm
Дата кодирования : UTC 2017-09-28 14:15:42
Программа кодирования : mkvmerge v7.1.0 ('Good Love') 64bit built on Jul 27 2014 13:06:55
Библиотека кодирования : libebml v1.3.0 + libmatroska v1.4.1
Обложка : Yes
Attachments : cover_land.jpg / small_cover.jpg / small_cover_land.jpg / cover.jpg
Видео
Идентификатор : 1
Формат : AVC
Формат/Информация : Advanced Video Codec
Профиль формата : High@L4
Параметр CABAC формата : Да
Параметр ReFrames формата : 5 кадров
Идентификатор кодека : V_MPEG4/ISO/AVC
Продолжительность : 1 ч. 48 м.
Битрейт : 4484 Кбит/сек
Ширина : 1912 пикселей
Высота : 796 пикселей
Соотношение сторон : 2,40:1
Режим частоты кадров : Постоянный
Частота кадров : 23,976 (24000/1001) кадра/сек
Цветовое пространство : YUV
Субдискретизация насыщенности : 4:2:0
Битовая глубина : 8 бит
Тип развёртки : Прогрессивная
Бит/(Пиксели*Кадры) : 0.123
Размер потока : 3,41 Гбайт (84%)
Заголовок : The.Limehouse.Golem.2016.1080p.WEB-DL.DD5.1.H264-FGT
Язык : English
Default : Да
Forced : Нет
Цветовой диапазон : Limited
Основные цвета : BT.709
Характеристики трансфера : BT.709
Коэффициенты матрицы : BT.709
Аудио #1
Идентификатор : 2
Формат : AC-3
Формат/Информация : Audio Coding 3
Расширение режима : CM (complete main)
Параметр Endianness формата : Big
Идентификатор кодека : A_AC3
Продолжительность : 1 ч. 48 м.
Вид битрейта : Постоянный
Битрейт : 384 Кбит/сек
Каналы : 6 каналов
Расположение каналов : Front: L C R, Side: L R, LFE
Частота : 48,0 КГц
Частота кадров : 31,250 кадров/сек (1536 spf)
Метод сжатия : С потерями
Задержка видео : -42 мс.
Размер потока : 299 Мбайт (7%)
Заголовок : DD5.1 AlexFilm
Язык : Russian
Default : Да
Forced : Нет
Аудио #2
Идентификатор : 3
Формат : AC-3
Формат/Информация : Audio Coding 3
Расширение режима : CM (complete main)
Параметр Endianness формата : Big
Идентификатор кодека : A_AC3
Продолжительность : 1 ч. 48 м.
Вид битрейта : Постоянный
Битрейт : 384 Кбит/сек
Каналы : 6 каналов
Расположение каналов : Front: L C R, Side: L R, LFE
Частота : 48,0 КГц
Частота кадров : 31,250 кадров/сек (1536 spf)
Метод сжатия : С потерями
Задержка видео : -42 мс.
Размер потока : 299 Мбайт (7%)
Заголовок : DD5.1 Original
Язык : English
Default : Нет
Forced : Нет
Текст
Идентификатор : 4
Формат : UTF-8
Идентификатор кодека : S_TEXT/UTF8
Идентификатор кодека/Информация : UTF-8 Plain Text
Язык : English
Default : Нет
Forced : Нет
Меню
00:00:00.000 : en:1
00:11:30.023 : en:2
00:20:49.999 : en:3
00:32:21.774 : en:4
00:40:16.039 : en:5
00:52:10.628 : en:6
01:10:57.504 : en:7
01:24:19.055 : en:8
01:30:02.022 : en:9
01:43:27.160 : en:10

Скриншоты

[Цитировать]



Показать сообщения:    

Текущее время: 14-Дек 18:53

Часовой пояс: UTC + 6


Вы не можете начинать темы
Вы не можете отвечать на сообщения
Вы не можете редактировать свои сообщения
Вы не можете удалять свои сообщения
Вы не можете голосовать в опросах
Вы не можете прикреплять файлы к сообщениям
Вы не можете скачивать файлы

!ВНИМАНИЕ!
Сайт не предоставляет электронные версии произведений, а занимается лишь коллекционированием и каталогизацией ссылок, присылаемых и публикуемых на форуме нашими читателями. Если вы являетесь правообладателем какого-либо представленного материала и не желаете, чтобы ссылка на него находилась в нашем каталоге, свяжитесь с нами, и мы незамедлительно удалим ее. Файлы для обмена на трекере предоставлены пользователями сайта, и администрация не несет ответственности за их содержание. Просьба не заливать файлы, защищенные авторскими правами, а также файлы нелегального содержания!