[ Сегодня идет свободное скачивание без начисления Download ]


Статистика раздачи
Скачал: [ 6 ]
 
   
 
 
 
 
Орвилл / The Orville [01x01-10 из 13] (2017) WEBRip 720p | P Название: Орвилл
Оригинальное название: The Orville
Год Выпуска: 2017
Жанр: фантастика, драма, комедия
Выпущено: США / 20th Century Fox Television, Fuzzy Door Productions, Twentieth Century Fox Television
Режиссёр: Брэннон Брага, Джон Кассар, Джеймс Л. Конуэй
В ролях: Сет МакФарлейн, Чад Л. Коулмэн, Скотт Граймз, Марк Джексон, Пенни Джонсон, Дж. Ли, Питер Макон, Эдрианн Палики, Холстон Сейдж, Ларри Джо Кэмпбелл
Описание: Космические приключения звездолёта с дефективным экипажем через 400 лет в будущем. Неудачливый капитан, его бывшая жена, его лучший друг с шилом в заднице, негр, суперсильная кселайка, безэмоциональный моклан, расист с Кайлона-1 и рассудительная докторша нарываются на авантюры.

Качество: WEBRip 720p (чистый видеоряд)
Видео: 1280x720, 23.976 fps, MPEG-4 AVC ~5000 kbps
Аудио #1: Русский (AC3, 2 ch, 384 Кбит/с)
Перевод: Профессиональный (многоголосый закадровый) (LostFilm)
Аудио #2: Английский (EAC3, 6 ch, 640 Кбит/с)
Субтитры: Английские
Продолжительность: 10 х ~00:45:00
Реклама: Полностью отсутствует

MediaInfo:

Общее
Уникальный идентификатор : 242273603545684953975176832736622502134 (0xB64432E3446D0ECE999B5E66FE8760F6)
Полное имя : D:\The Orville (Season 01) AMZN WEBRip 720p GeneralFilm\The.Orville.S01E01.WEBRip.720p.GeneralFilm.mkv
Формат : Matroska
Версия формата : Version 4 / Version 2
Размер файла : 1,89 Гбайт
Продолжительность : 45 м. 5 с.
Общий поток : 6014 Кбит/сек
Дата кодирования : UTC 2017-09-20 11:01:55
Программа кодирования : mkvmerge v7.7.0 ('Six Voices') 64bit built on Feb 28 2015 23:39:33
Библиотека кодирования : libebml v1.3.1 + libmatroska v1.4.2
Видео
Идентификатор : 1
Формат : AVC
Формат/Информация : Advanced Video Codec
Профиль формата : High@L4.1
Настройки формата : CABAC / 9 Ref Frames
Параметр CABAC формата : Да
Параметр RefFrames формата : 9 кадров
Идентификатор кодека : V_MPEG4/ISO/AVC
Продолжительность : 45 м. 5 с.
Битрейт : 4870 Кбит/сек
Ширина : 1280 пикселей
Высота : 720 пикселей
Соотношение сторон : 16:9
Режим частоты кадров : Постоянный
Частота кадров : 23,976 (24000/1001) кадра/сек
Цветовое пространство : YUV
Субдискретизация насыщенности : 4:2:0
Битовая глубина : 8 бит
Тип развёртки : Прогрессивная
Бит/(Пиксели*Кадры) : 0.220
Размер потока : 1,53 Гбайт (81%)
Язык : English
Default : Да
Forced : Нет
Аудио #1
Идентификатор : 2
Формат : AC-3
Формат/Информация : Audio Coding 3
Параметр Endianness формата : Big
Идентификатор кодека : A_AC3
Продолжительность : 45 м. 5 с.
Вид битрейта : Постоянный
Битрейт : 384 Кбит/сек
Каналы : 2 канала
Расположение каналов : Front: L R
Частота : 48,0 КГц
Частота кадров : 31,250 кадров/сек (1536 SPF)
Битовая глубина : 16 бит
Метод сжатия : С потерями
Размер потока : 124 Мбайт (6%)
Язык : Russian
ServiceKind/String : Complete Main
Default : Да
Forced : Нет
Аудио #2
Идентификатор : 3
Формат : E-AC-3
Формат/Информация : Enhanced Audio Coding 3
Параметр Endianness формата : Big
Идентификатор кодека : A_EAC3
Продолжительность : 45 м. 5 с.
Вид битрейта : Постоянный
Битрейт : 640 Кбит/сек
Каналы : 6 каналов
Расположение каналов : Front: L C R, Side: L R, LFE
Частота : 48,0 КГц
Частота кадров : 187,500 кадров/сек (256 SPF)
Метод сжатия : С потерями
Задержка видео : 167 мс.
Размер потока : 206 Мбайт (11%)
Язык : English
ServiceKind/String : Complete Main
Default : Нет
Forced : Нет
Текст
Идентификатор : 4
Формат : UTF-8
Идентификатор кодека : S_TEXT/UTF8
Идентификатор кодека/Информация : UTF-8 Plain Text
Язык : English
Default : Нет
Forced : Нет

Скриншоты

Релиз от

[Цитировать]



Показать сообщения:    

Текущее время: 14-Дек 18:52

Часовой пояс: UTC + 6


Вы не можете начинать темы
Вы не можете отвечать на сообщения
Вы не можете редактировать свои сообщения
Вы не можете удалять свои сообщения
Вы не можете голосовать в опросах
Вы не можете прикреплять файлы к сообщениям
Вы не можете скачивать файлы

!ВНИМАНИЕ!
Сайт не предоставляет электронные версии произведений, а занимается лишь коллекционированием и каталогизацией ссылок, присылаемых и публикуемых на форуме нашими читателями. Если вы являетесь правообладателем какого-либо представленного материала и не желаете, чтобы ссылка на него находилась в нашем каталоге, свяжитесь с нами, и мы незамедлительно удалим ее. Файлы для обмена на трекере предоставлены пользователями сайта, и администрация не несет ответственности за их содержание. Просьба не заливать файлы, защищенные авторскими правами, а также файлы нелегального содержания!