[ Сегодня идет свободное скачивание без начисления Download ]


Статистика раздачи
Качаю: [ 3 ]
Скачал: [ 1 ]
 
   
 
 
 
 
Американская история ужасов / American Horror Story [07x01-11 из 11] (2017) WEB-DL 720p | P | LostFilm Название: Американская история ужасов
Оригинальное название: American Horror Story
Год Выпуска: 2017
Жанр: Ужасы, фэнтези, триллер, драма
Выпущено: США, Brad Falchuk Teley-Vision, Ryan Murphy Productions, 20th Century Fox Television
Режиссер: Брэдли Букер, Лиза Джонсон, Гвинет Хордер-Пейтон
В ролях: Сара Полсон, Эван Питерс, Шайенн Джексон, Билли Лурд, Элисон Пилл, Колтон Хейнс, Билли Айкнер, Лесли Гроссман
Описание: Сюжет нового седьмого сезона сериала, вышедший под названием «Культ», начинается с показа отрывков из президентской кампании Дональда Трампа и Хиллари Клинтон. Герои серии с ужасом наблюдают за тем, как Дональд Трамп объявлен президентом Соединенных Штатов...

Качество: WEB-DL 720p (чистый видеоряд)
Видео: 1280x718, 23.976 fps, MPEG-4 AVC ~4000 kbps
Аудио #1: Русский (AC3, 2 ch, 384 Кбит/с)
Перевод: Профессиональный (многоголосый закадровый) (LostFilm)
Аудио #2: Английский (AC3, 6 ch, 384 Кбит/с)
Субтитры: Английские
Продолжительность: 11 х ~00:50:00
Реклама: Полностью отсутствует

MediaInfo:

Общее
Уникальный идентификатор : 245751170114639514042059321842642292511 (0xB8E1F428408AD253BAE98C21F0C58F1F)
Полное имя : D:\American Horror Story (Season 07) WEBDL 720p GeneralFilm\American.Horror.Story.S07E04.WEBDL.720p.GenerlFilm.mkv
Формат : Matroska
Версия формата : Version 4 / Version 2
Размер файла : 1,74 Гбайт
Продолжительность : 50 м. 47 с.
Общий поток : 4891 Кбит/сек
Дата кодирования : UTC 2017-09-30 05:08:53
Программа кодирования : mkvmerge v7.7.0 ('Six Voices') 64bit built on Feb 28 2015 23:39:33
Библиотека кодирования : libebml v1.3.1 + libmatroska v1.4.2
Видео
Идентификатор : 1
Формат : AVC
Формат/Информация : Advanced Video Codec
Профиль формата : High@L3.1
Настройки формата : 2 Ref Frames
Параметр CABAC формата : Нет
Параметр RefFrames формата : 2 кадра
Идентификатор кодека : V_MPEG4/ISO/AVC
Продолжительность : 50 м. 47 с.
Битрейт : 4025 Кбит/сек
Ширина : 1280 пикселей
Высота : 720 пикселей
Соотношение сторон : 16:9
Режим частоты кадров : Постоянный
Частота кадров : 24,000 кадра/сек
Цветовое пространство : YUV
Субдискретизация насыщенности : 4:2:0
Битовая глубина : 8 бит
Тип развёртки : Прогрессивная
Бит/(Пиксели*Кадры) : 0.182
Размер потока : 1,43 Гбайт (82%)
Default : Да
Forced : Нет
Цветовой диапазон : Limited
Основные цвета : BT.709
Характеристики трансфера : BT.709
Коэффициенты матрицы : BT.709
Аудио #1
Идентификатор : 2
Формат : AC-3
Формат/Информация : Audio Coding 3
Параметр Endianness формата : Big
Идентификатор кодека : A_AC3
Продолжительность : 50 м. 47 с.
Вид битрейта : Постоянный
Битрейт : 384 Кбит/сек
Каналы : 2 канала
Расположение каналов : Front: L R
Частота : 48,0 КГц
Частота кадров : 31,250 кадров/сек (1536 SPF)
Битовая глубина : 16 бит
Метод сжатия : С потерями
Задержка видео : -41 мс.
Размер потока : 140 Мбайт (8%)
Язык : Russian
ServiceKind/String : Complete Main
Default : Да
Forced : Нет
Аудио #2
Идентификатор : 3
Формат : AC-3
Формат/Информация : Audio Coding 3
Параметр Endianness формата : Big
Идентификатор кодека : A_AC3
Продолжительность : 50 м. 47 с.
Вид битрейта : Постоянный
Битрейт : 384 Кбит/сек
Каналы : 6 каналов
Расположение каналов : Front: L C R, Side: L R, LFE
Частота : 48,0 КГц
Частота кадров : 31,250 кадров/сек (1536 SPF)
Битовая глубина : 16 бит
Метод сжатия : С потерями
Задержка видео : -12 мс.
Размер потока : 140 Мбайт (8%)
Язык : English
ServiceKind/String : Complete Main
Default : Нет
Forced : Нет
Текст
Идентификатор : 4
Формат : UTF-8
Идентификатор кодека : S_TEXT/UTF8
Идентификатор кодека/Информация : UTF-8 Plain Text
Язык : English
Default : Нет
Forced : Нет

Скриншоты

Релиз от

[Цитировать]



Показать сообщения:    

Текущее время: 14-Дек 18:57

Часовой пояс: UTC + 6


Вы не можете начинать темы
Вы не можете отвечать на сообщения
Вы не можете редактировать свои сообщения
Вы не можете удалять свои сообщения
Вы не можете голосовать в опросах
Вы не можете прикреплять файлы к сообщениям
Вы не можете скачивать файлы

!ВНИМАНИЕ!
Сайт не предоставляет электронные версии произведений, а занимается лишь коллекционированием и каталогизацией ссылок, присылаемых и публикуемых на форуме нашими читателями. Если вы являетесь правообладателем какого-либо представленного материала и не желаете, чтобы ссылка на него находилась в нашем каталоге, свяжитесь с нами, и мы незамедлительно удалим ее. Файлы для обмена на трекере предоставлены пользователями сайта, и администрация не несет ответственности за их содержание. Просьба не заливать файлы, защищенные авторскими правами, а также файлы нелегального содержания!