[ Сегодня идет свободное скачивание без начисления Download ]


Статистика раздачи
Скачал: [ 7 ]
 
   
 
 
 
 
Чудо-женщина / Wonder Woman (2017) BDRip 720p | 60 fps Информация о фильме
Русское название: Чудо-женщина
Оригинальное название: Wonder Woman
Год выхода: 2017
Жанр: фантастика, фэнтези, боевик, приключения, военный
Режиссер: Пэтти Дженкинс
Выпущено: США, Китай, Гонконг, Великобритания, Италия, Канада, Новая Зеландия
Продолжительность: 02:21:16
Перевод: Дублированный
В ролях: Галь Гадот, Робин Райт, Дэвид Тьюлис, Конни Нильсен, Крис Пайн, Елена Анайя, Люси Дэвис, Юэн Бремнер, Даутцен Крёз, Дэнни Хьюстон
Сюжет фильма
Перед тем как стать Чудо-Женщиной, она была Дианой — принцессой амазонок, обученной быть непобедимой воительницей. И когда на берегах ограждённого от внешнего мира райского острова, который служил ей родиной, терпит крушение американский пилот и рассказывает о серьёзном конфликте, бушующем во внешнем мире, Диана покидает свой дом, чтобы справиться с этой угрозой. И там, сражаясь бок о бок с человеком в войне за мир, Диана обнаружит всю полноту своей власти… и своё истинное предназначение.
Файл
Качество: BDRip 720p (исходник Blu-ray Disc)
Контейнер: MKV (расширение файла)
Видео: 1280x534, 5450 Кбит/сек, 60.000 кадр/сек, AVC, x264, High@L4.1, 2.40:1, 0.133 Бит/[Пиксели*Кадры]
Аудио 1: AC-3, 448 Кбит/сек, 6 канала(ов), 48,0 КГц - Дублированный / Русский
Аудио 2: AC-3, 448 Кбит/сек, 6 канала(ов), 48,0 КГц - Оригинал / Английский
Субтитры: Русские | Полные, Английские | Полные
Форсированные субтитры: Русские
Чаптеры (Главы): Есть

Автор Рипа:

MediaInfo

Format : Matroska
Format version : Version 2
File size : 6.39 GiB
Duration : 2 h 21 min
Overall bit rate : 6 474 kb/s
Movie name : Wonder Woman.(2017).BDRip.720p.[envy].[60fps]
Encoded date : UTC 2017-10-01 07:32:27
Writing application : mkvmerge v5.8.0 ('No Sleep / Pillow') built on Sep 2 2012 15:37:04
Writing library : libebml v1.2.3 + libmatroska v1.3.0
Video
ID : 1
Format : AVC
Format/Info : Advanced Video Codec
Format profile : High@L4.1
Format settings, CABAC : Yes
Format settings, RefFrames : 9 frames
Codec ID : V_MPEG4/ISO/AVC
Duration : 2 h 21 min
Bit rate : 5 450 kb/s
Width : 1 280 pixels
Height : 534 pixels
Display aspect ratio : 2.40:1
Frame rate mode : Constant
Frame rate : 60.000 FPS
Color space : YUV
Chroma subsampling : 4:2:0
Bit depth : 8 bits
Scan type : Progressive
Bits/(Pixel*Frame) : 0.133
Stream size : 5.38 GiB (84%)
Title : Wonder Woman.(2017).BDRip.720p.[envy].[60fps]
Writing library : x264 core 146 r2538 121396c
Encoding settings : cabac=1 / ref=9 / deblock=1:0:0 / analyse=0x3:0x113 / me=umh / subme=10 / psy=1 / psy_rd=1.00:0.00 / mixed_ref=1 / me_range=24 / chroma_me=1 / trellis=2 / 8x8dct=1 / cqm=0 / deadzone=21,11 / fast_pskip=0 / chroma_qp_offset=-2 / threads=12 / lookahead_threads=1 / sliced_threads=0 / nr=0 / decimate=1 / interlaced=0 / bluray_compat=0 / constrained_intra=0 / bframes=5 / b_pyramid=2 / b_adapt=2 / b_bias=0 / direct=3 / weightb=1 / open_gop=0 / weightp=2 / keyint=250 / keyint_min=25 / scenecut=40 / intra_refresh=0 / rc=crf / mbtree=0 / crf=16.5 / qcomp=0.60 / qpmin=0 / qpmax=69 / qpstep=4 / ip_ratio=1.40 / pb_ratio=1.30 / aq=3:1.00
Language : English
Default : Yes
Forced : No
Audio #1
ID : 2
Format : AC-3
Format/Info : Audio Coding 3
Format settings, Endianness : Big
Codec ID : A_AC3
Duration : 2 h 21 min
Bit rate mode : Constant
Bit rate : 448 kb/s
Channel(s) : 6 channels
Channel positions : Front: L C R, Side: L R, LFE
Sampling rate : 48.0 kHz
Frame rate : 31.250 FPS (1536 SPF)
Bit depth : 16 bits
Compression mode : Lossy
Stream size : 453 MiB (7%)
Title : Dub
Language : Russian
Service kind : Complete Main
Default : Yes
Forced : No
Audio #2
ID : 3
Format : AC-3
Format/Info : Audio Coding 3
Format settings, Endianness : Big
Codec ID : A_AC3
Duration : 2 h 21 min
Bit rate mode : Constant
Bit rate : 448 kb/s
Channel(s) : 6 channels
Channel positions : Front: L C R, Side: L R, LFE
Sampling rate : 48.0 kHz
Frame rate : 31.250 FPS (1536 SPF)
Bit depth : 16 bits
Compression mode : Lossy
Stream size : 453 MiB (7%)
Title : Eng
Language : English
Service kind : Complete Main
Default : No
Forced : No
Text #1
ID : 4
Format : UTF-8
Codec ID : S_TEXT/UTF8
Codec ID/Info : UTF-8 Plain Text
Title : Rus forced
Language : Russian
Default : Yes
Forced : Yes
Text #2
ID : 5
Format : UTF-8
Codec ID : S_TEXT/UTF8
Codec ID/Info : UTF-8 Plain Text
Title : Rus full
Language : Russian
Default : No
Forced : No
Text #3
ID : 6
Format : UTF-8
Codec ID : S_TEXT/UTF8
Codec ID/Info : UTF-8 Plain Text
Title : Eng full
Language : English
Default : No
Forced : No
Menu
00:00:00.000 : :Chapter 01
00:10:26.917 : :Chapter 02
00:23:12.557 : :Chapter 03
00:33:10.738 : :Chapter 04
00:43:55.132 : :Chapter 05
00:54:25.553 : :Chapter 06
01:07:38.262 : :Chapter 07
01:22:30.195 : :Chapter 08
01:34:02.845 : :Chapter 09
01:45:37.998 : :Chapter 10
01:57:43.765 : :Chapter 11
02:10:41.416 : :Chapter 12
02:21:15.717 : :Chapter 13

Скриншоты

[Цитировать]



Показать сообщения:    

Текущее время: 15-Авг 11:06

Часовой пояс: UTC + 6


Вы не можете начинать темы
Вы не можете отвечать на сообщения
Вы не можете редактировать свои сообщения
Вы не можете удалять свои сообщения
Вы не можете голосовать в опросах
Вы не можете прикреплять файлы к сообщениям
Вы не можете скачивать файлы

!ВНИМАНИЕ!
Сайт не предоставляет электронные версии произведений, а занимается лишь коллекционированием и каталогизацией ссылок, присылаемых и публикуемых на форуме нашими читателями. Если вы являетесь правообладателем какого-либо представленного материала и не желаете, чтобы ссылка на него находилась в нашем каталоге, свяжитесь с нами, и мы незамедлительно удалим ее. Файлы для обмена на трекере предоставлены пользователями сайта, и администрация не несет ответственности за их содержание. Просьба не заливать файлы, защищенные авторскими правами, а также файлы нелегального содержания!