[ Сегодня идет свободное скачивание без начисления Download ]


Статистика раздачи
Скачал: [ 1 ]
 
   
 
 
 
 
Нюхач [S3, 1-8 из 8] (2017) WEB-DLRip
Оригинальное название: Нюхач
Жанр: Детектив
Год выхода: 2017
Выпущено: Украина, Pronto Film, Film.UA
Режиссер: Артем Литвиненко
В ролях: Кирилл Кяро, Иван Оганесян, Нина Гогаева, Алексей Крылов, Мария Аниканова, Агне Грудите, Николай Чиндяйкин, Артём Ткаченко, Анатолий Руденко, Янина Студилина, Павел Кузьмин, Сергей Юшкевич, Игорь Ботвин, Анна Адамович
Описание: Каждое преступление имеет свой запах... В новом сезоне захватывающего сериала Нюхач и Виктор Лебедев продолжают служить правосудию. Дар Нюхача и опыт Лебедева делают их тандем сильным и очень эффективным. Но им приходится сталкиваться не только с рядовыми преступниками: за каждым шагом Нюхача и Виктора следит таинственная организация, и им приходится распутывать целую сеть из тайн, загадок и преступлений. Сумеет ли их дружба выдержать все испытания, и смогут ли они победить таинственного врага?
Файл:
Качество: WEB-DLRip
Видео: XviD, ~ 1779 Кбит/с, 720x400
Аудио: AC3, 2 ch, 192 Кбит/с
Продолжительность: x ~ 00:50:00
Язык: Русский
Доп. ин-ция:
Релиз от: Рип от:BLACKTIR

Внимание! Раздача ведётся путём добавления новых серий.

Раздача ведётся путём добавления новых серий, при каждом добавлении создаётся новый торрент. Чтобы начать докачку новой серии, пользователям необходимо сделать следующее:
- Остановить скачивание.
- Удалить старый торрент у себя из клиента (старые серии удалять не надо).
- Скачать новый торрент и запустить его у себя в клиенте вместо старого, при этом указать клиенту путь в старую папку куда и должно происходить скачивание новых серий.

MediaInfo:

Общее
Полное имя : D:\моё видио\Nyuhach.3.01.WEB-DLRip.co.avi
Формат : AVI
Формат/Информация : Audio Video Interleave
Размер файла : 700 Мбайт
Продолжительность : 49 м.
Общий поток : 1981 Кбит/сек
Программа кодирования : VirtualDubMod 1.5.10.2 (build 2540/release)
Библиотека кодирования : VirtualDubMod build 2540/release
Видео
Идентификатор : 0
Формат : MPEG-4 Visual
Профиль формата : Advanced Simple@L5
Параметр BVOP формата : 2
Параметр QPel формата : Нет
Параметр GMC формата : Без точки перехода
Параметр матрицы формата : Default (MPEG)
Идентификатор кодека : XVID
Идентификатор кодека/Подсказка : XviD
Продолжительность : 49 м.
Битрейт : 1779 Кбит/сек
Ширина : 720 пикселей
Высота : 400 пикселей
Соотношение сторон : 16:9
Частота кадров : 25,000 кадров/сек
Цветовое пространство : YUV
Субдискретизация насыщенности : 4:2:0
Битовая глубина : 8 бит
Тип развёртки : Прогрессивная
Метод сжатия : С потерями
Бит/(Пиксели*Кадры) : 0.247
Размер потока : 629 Мбайт (90%)
Библиотека кодирования : XviD 1.2.1 (UTC 2008-12-04)
Аудио
Идентификатор : 1
Формат : AC-3
Формат/Информация : Audio Coding 3
Расширение режима : CM (complete main)
Параметр Endianness формата : Big
Идентификатор кодека : 2000
Продолжительность : 49 м.
Вид битрейта : Постоянный
Битрейт : 192 Кбит/сек
Каналы : 2 канала
Расположение каналов : Front: L R
Частота : 48,0 КГц
Битовая глубина : 16 бит
Метод сжатия : С потерями
Размер потока : 67,9 Мбайт (10%)
Выравнивание : Разделение по промежуткам
Продолжительность промежутка : 40 мс. (1,00 видеокадр)
Время предзагрузки промежутка : 500 мс.

Скриншоты

Добавлены 1-8 серии.
3 сезон сериала залит полностью.


Последний раз редактировалось: papa1951deda (2017-10-06 21:55), всего редактировалось 3 раз(а)

[Цитировать]

Добавлены 7-8 серии.

[Цитировать]



Показать сообщения:    

Текущее время: 15-Авг 14:57

Часовой пояс: UTC + 6


Вы не можете начинать темы
Вы не можете отвечать на сообщения
Вы не можете редактировать свои сообщения
Вы не можете удалять свои сообщения
Вы не можете голосовать в опросах
Вы не можете прикреплять файлы к сообщениям
Вы не можете скачивать файлы

!ВНИМАНИЕ!
Сайт не предоставляет электронные версии произведений, а занимается лишь коллекционированием и каталогизацией ссылок, присылаемых и публикуемых на форуме нашими читателями. Если вы являетесь правообладателем какого-либо представленного материала и не желаете, чтобы ссылка на него находилась в нашем каталоге, свяжитесь с нами, и мы незамедлительно удалим ее. Файлы для обмена на трекере предоставлены пользователями сайта, и администрация не несет ответственности за их содержание. Просьба не заливать файлы, защищенные авторскими правами, а также файлы нелегального содержания!