[ Сегодня идет свободное скачивание без начисления Download ]


Статистика раздачи
Качаю: [ 1 ]
Скачал: [ 2 ]
 
   
 
 
 
 
Человек-паук: Возвращение домой / Spider-Man: Homecoming (2017) BDRip 3D [H.264/1080p] [Горизонтальная анаморфная стереопара]- Производство: США, Columbia Pictures, Marvel Studios, Pascal Pictures
Жанр: Фантастика, боевик, приключения
Режиссер: Джон Уоттс
Продюсер: Виктория Алонсо, Ави Арад, Митчелл Белл, ...
Актеры: Том Холланд, Роберт Дауни мл., Майкл Китон, Мариса Томей, Джон Фавро, Джейкоб Баталон, Зендея, Лора Хэрриер, Тони Револори, Дональд Гловер ...
Описание:
После исторической встречи с командой Мстителей Питер Паркер возвращается домой, стараясь зажить обычной жизнью под опекой своей тёти Мэй. Но теперь за Питером приглядывает ещё кое-что… Тони Старк видел Человека-Паука в деле и должен стать его наставником. Когда новый злодей Стервятник угрожает уничтожить всё, что дорого Питеру, приходит время доказать всем, что такое настоящий супергерой.

Возраст: 16+ (зрителям, достигшим 16 лет)
Рейтинг MPAA: PG-13 (детям до 13 лет просмотр нежелателен)
Премьера (мир): 28 июня 2017
Премьера (РФ): 6 июля 2017, «WDSSPR»
Продолжительность: 02:13:28
Качество видео: BDRip 1080p
Перевод: Дублированный (iTunes)
Субтитры: Русские (Forced, Full), украинские (Forced, Full), английские (Forced, Full)
Видео: AVC/H.264, 1920x808 (2.40:1), 23.976 fps, 9050 kbps
Аудио #1: AC-3, 48.0 KHz, 6 ch, 384 Kbps, CBR | Русский
Аудио #2: AC-3, 48.0 KHz, 2 ch, 192 kbps, CBR | Украинский
Аудио #3: DTS, 48.0 KHz, 6 ch, 1510 Kbps, CBR | Английский

Mediainfo:

Общее
Уникальный идентификатор : 216540173310787956501399493368384815092 (0xA2E81ED227945B4BAB6013C82FE77FF4)
Полное имя : D:\Фильмы 3D\Spider-Man.Homecoming.2017.BDRip.3D.1080p.Half-SBS.mkv
Формат : Matroska
Версия формата : Version 4 / Version 2
Размер файла : 10,4 Гбайт
Продолжительность : 2 ч. 13 м.
Общий поток : 11,1 Мбит/сек
Дата кодирования : UTC 2017-10-03 13:27:42
Программа кодирования : mkvmerge v16.0.0 ('Protest') 64-bit
Библиотека кодирования : libebml v1.3.5 + libmatroska v1.4.8
Attachments : Spider-Man_3A-Homecoming.jpg
Видео
Идентификатор : 1
Формат : AVC
Формат/Информация : Advanced Video Codec
Профиль формата : High@L4.1
Настройки формата : CABAC / 5 Ref Frames
Параметр CABAC формата : Да
Параметр RefFrames формата : 5 кадров
Идентификатор кодека : V_MPEG4/ISO/AVC
Продолжительность : 2 ч. 13 м.
Битрейт : 9050 Кбит/сек
Ширина : 1920 пикселей
Высота : 808 пикселей
Соотношение сторон : 2,40:1
Режим частоты кадров : Постоянный
Частота кадров : 23,976 кадра/сек
Цветовое пространство : YUV
Субдискретизация насыщенности : 4:2:0
Битовая глубина : 8 бит
Тип развёртки : Прогрессивная
Бит/(Пиксели*Кадры) : 0.243
Размер потока : 8,43 Гбайт (81%)
Библиотека кодирования : x264 core 152 r2851 ba24899
Настройки программы : cabac=1 / ref=5 / deblock=1:0:0 / analyse=0x3:0x133 / me=umh / subme=7 / psy=1 / psy_rd=1.00:0.00 / mixed_ref=1 / me_range=16 / chroma_me=1 / trellis=1 / 8x8dct=1 / cqm=0 / deadzone=21,11 / fast_pskip=0 / chroma_qp_offset=-2 / threads=12 / lookahead_threads=2 / sliced_threads=0 / nr=0 / decimate=1 / interlaced=0 / bluray_compat=0 / constrained_intra=0 / bframes=3 / b_pyramid=2 / b_adapt=1 / b_bias=0 / direct=1 / weightb=1 / open_gop=0 / weightp=2 / keyint=250 / keyint_min=23 / scenecut=40 / intra_refresh=0 / rc_lookahead=40 / rc=2pass / mbtree=1 / bitrate=9050 / ratetol=1.0 / qcomp=0.60 / qpmin=0 / qpmax=69 / qpstep=4 / cplxblur=20.0 / qblur=0.5 / ip_ratio=1.40 / aq=1:1.00
Язык : English
Default : Да
Forced : Нет
Аудио #1
Идентификатор : 2
Формат : AC-3
Формат/Информация : Audio Coding 3
Параметр Endianness формата : Big
Идентификатор кодека : A_AC3
Продолжительность : 2 ч. 13 м.
Вид битрейта : Постоянный
Битрейт : 384 Кбит/сек
Каналы : 6 каналов
Расположение каналов : Front: L C R, Side: L R, LFE
Частота : 48,0 КГц
Частота кадров : 31,250 кадров/сек (1536 SPF)
Битовая глубина : 16 бит
Метод сжатия : С потерями
Размер потока : 367 Мбайт (3%)
Язык : Russian
ServiceKind/String : Complete Main
Default : Да
Forced : Нет
Аудио #2
Идентификатор : 3
Формат : AC-3
Формат/Информация : Audio Coding 3
Параметр Endianness формата : Big
Идентификатор кодека : A_AC3
Продолжительность : 2 ч. 13 м.
Вид битрейта : Постоянный
Битрейт : 192 Кбит/сек
Каналы : 2 канала
Расположение каналов : Front: L R
Частота : 48,0 КГц
Частота кадров : 31,250 кадров/сек (1536 SPF)
Битовая глубина : 16 бит
Метод сжатия : С потерями
Размер потока : 183 Мбайт (2%)
Язык : Ukrainian
ServiceKind/String : Complete Main
Default : Нет
Forced : Нет
Аудио #3
Идентификатор : 4
Формат : DTS
Формат/Информация : Digital Theater Systems
Режим : 16
Параметр Endianness формата : Big
Идентификатор кодека : A_DTS
Продолжительность : 2 ч. 13 м.
Вид битрейта : Постоянный
Битрейт : 1509 Кбит/сек
Каналы : 6 каналов
Расположение каналов : Front: L C R, Side: L R, LFE
Частота : 48,0 КГц
Частота кадров : 93,750 кадра/сек (512 SPF)
Битовая глубина : 24 бит
Метод сжатия : С потерями
Размер потока : 1,41 Гбайт (14%)
Язык : English
Default : Нет
Forced : Нет
Текст #1
Идентификатор : 5
Формат : UTF-8
Идентификатор кодека : S_TEXT/UTF8
Идентификатор кодека/Информация : UTF-8 Plain Text
Продолжительность : 2 ч. 9 м.
Битрейт : 0 бит/сек
ElementCount : 17
Размер потока : 825 байт (0%)
Заголовок : Forced, iTunes
Язык : Russian
Default : Да
Forced : Нет
Текст #2
Идентификатор : 6
Формат : UTF-8
Идентификатор кодека : S_TEXT/UTF8
Идентификатор кодека/Информация : UTF-8 Plain Text
Продолжительность : 2 ч. 12 м.
Битрейт : 104 бит/сек
ElementCount : 1825
Размер потока : 102 Кбайт (0%)
Заголовок : iTunes
Язык : Russian
Default : Нет
Forced : Нет
Текст #3
Идентификатор : 7
Формат : UTF-8
Идентификатор кодека : S_TEXT/UTF8
Идентификатор кодека/Информация : UTF-8 Plain Text
Продолжительность : 1 ч. 22 м.
Битрейт : 21 бит/сек
ElementCount : 241
Размер потока : 12,7 Кбайт (0%)
Заголовок : Forced
Язык : Ukrainian
Default : Нет
Forced : Нет
Текст #4
Идентификатор : 8
Формат : UTF-8
Идентификатор кодека : S_TEXT/UTF8
Идентификатор кодека/Информация : UTF-8 Plain Text
Продолжительность : 2 ч. 12 м.
Битрейт : 94 бит/сек
ElementCount : 1821
Размер потока : 92,2 Кбайт (0%)
Заголовок : Full
Язык : Ukrainian
Default : Нет
Forced : Нет
Текст #5
Идентификатор : 9
Формат : UTF-8
Идентификатор кодека : S_TEXT/UTF8
Идентификатор кодека/Информация : UTF-8 Plain Text
Продолжительность : 5 с. 130 мс.
Битрейт : 79 бит/сек
ElementCount : 2
Размер потока : 51,0 байт (0%)
Заголовок : Forced, iTunes
Язык : English
Default : Нет
Forced : Нет
Текст #6
Идентификатор : 10
Формат : UTF-8
Идентификатор кодека : S_TEXT/UTF8
Идентификатор кодека/Информация : UTF-8 Plain Text
Продолжительность : 2 ч. 12 м.
Битрейт : 64 бит/сек
ElementCount : 1790
Размер потока : 62,3 Кбайт (0%)
Заголовок : iTunes
Язык : English
Default : Нет
Forced : Нет
Меню
00:00:00.000 : en:1
00:05:33.083 : en:2
00:14:23.279 : en:3
00:20:49.999 : en:4
00:26:18.243 : en:5
00:36:26.976 : en:6
00:46:02.926 : en:7
00:54:39.192 : en:8
01:05:09.280 : en:9
01:12:02.276 : en:10
01:20:19.189 : en:11
01:29:40.542 : en:12
01:36:55.894 : en:13
01:44:43.152 : en:14
01:50:30.249 : en:15
01:57:52.566 : en:16
Скриншоты:

[Цитировать]



Показать сообщения:    

Текущее время: 15-Авг 17:18

Часовой пояс: UTC + 6


Вы не можете начинать темы
Вы не можете отвечать на сообщения
Вы не можете редактировать свои сообщения
Вы не можете удалять свои сообщения
Вы не можете голосовать в опросах
Вы не можете прикреплять файлы к сообщениям
Вы не можете скачивать файлы

!ВНИМАНИЕ!
Сайт не предоставляет электронные версии произведений, а занимается лишь коллекционированием и каталогизацией ссылок, присылаемых и публикуемых на форуме нашими читателями. Если вы являетесь правообладателем какого-либо представленного материала и не желаете, чтобы ссылка на него находилась в нашем каталоге, свяжитесь с нами, и мы незамедлительно удалим ее. Файлы для обмена на трекере предоставлены пользователями сайта, и администрация не несет ответственности за их содержание. Просьба не заливать файлы, защищенные авторскими правами, а также файлы нелегального содержания!