[ Сегодня идет свободное скачивание без начисления Download ]


Статистика раздачи
Нет
 
   
 
 
 
 
Ускользающая красота / Stealing beauty (1996) WEB-DLRip-AVC Информация о фильме
Название: Ускользающая красота
Оригинальное название: Stealing Beauty
Год выхода: 1996
Жанр: драма, мелодрама
Режиссер: Бернардо Бертолуччи
В ролях: Шинейд Кьюсак, Джереми Айронс, Жан Маре, Донал МакКэнн, Д. У. Моффетт, Стефания Сандрелли, Рэйчел Вайс, Лив Тайлер, Карло Чекки, Джейсон Флеминг, Джозеф Пьеннес, Анна Мария Герарди, Игнацио Олива
О фильме :
Очаровательная молодая американка после самоубийства матери, которая была знаменитой топ-моделью и поэтессой, отправляется в путешествие в Италию. Она собирается провести некоторое время на вилле давних друзей ее семейства, которая расположена на фоне живописных тосканских холмов. Именно там Люси вновь встречает того мужчину, который четыре года назад подарил ей первый поцелуй в ее жизни. Однако у девушки есть и другой, самый главный мотив ее путешествия в Италию - она стремится разгадать загадочную надпись в дневнике ее матери, а смысл этой надписи может открыться ей только в этой стране. Но Люси предстоит пережить впереди еще не одно потрясение и открытие, в том числе, ее ожидает встреча с отцом...

Страна: Италия, Франция, Великобритания
Студия: Fiction Films, France 2 Cinéma, Jeremy Thomas Productions
Продолжительность: 01:58:15
Перевод: Профессиональный (многоголосый, закадровый)
Файл
Формат: MKV
Качество: WEB-DLRip-AVC
Видео: MPEG-4 AVC, 768x328, ~ 809 Кбит/с
Аудио: AAC-LC, 2 ch, ~72 Кбит/с
Субтитры: Русские

MI

Общее
Уникальный идентификатор : 214858786439598806347349463169574332531 (0xA1A44C0C3F337F2B9D4D7909F2DB6873)
Полное имя : D:MOVIESStealing.Beauty.1996.ExKinoRay.mkv
Формат : Matroska
Версия формата : Version 4 / Version 2
Размер файла : 747 Мбайт
Продолжительность : 1 ч. 58 м.
Общий поток : 883 Кбит/сек
Название фильма : |
Дата кодирования : UTC 2017-10-05 18:57:29
Программа кодирования : mkvmerge v15.0.0 ('Duel with the Devil') 64-bit
Библиотека кодирования : libebml v1.3.5 + libmatroska v1.4.5
Видео
Идентификатор : 1
Формат : AVC
Формат/Информация : Advanced Video Codec
Профиль формата : High@L4.1
Параметр CABAC формата : Да
Параметр RefFrames формата : 10 кадров
Идентификатор кодека : V_MPEG4/ISO/AVC
Продолжительность : 1 ч. 58 м.
Битрейт : 809 Кбит/сек
Ширина : 768 пикселей
Высота : 328 пикселей
Соотношение сторон : 2,35:1
Режим частоты кадров : Постоянный
Частота кадров : 23,976 (24000/1001) кадра/сек
Цветовое пространство : YUV
Субдискретизация насыщенности : 4:2:0
Битовая глубина : 8 бит
Тип развёртки : Прогрессивная
Бит/(Пиксели*Кадры) : 0.134
Размер потока : 684 Мбайт (92%)
Библиотека кодирования : x264 core 152 r2851kMod ba24899
Настройки программы : cabac=1 / ref=10 / deblock=1:-2:-2 / analyse=0x3:0x113 / me=umh / subme=11 / psy=1 / fade_compensate=0.00 / psy_rd=1.00:0.10 / mixed_ref=1 / me_range=32 / chroma_me=1 / trellis=2 / 8x8dct=1 / cqm=0 / deadzone=21,11 / fast_pskip=0 / chroma_qp_offset=-3 / threads=6 / lookahead_threads=1 / sliced_threads=0 / nr=0 / decimate=0 / interlaced=0 / bluray_compat=0 / constrained_intra=0 / bframes=10 / b_pyramid=2 / b_adapt=2 / b_bias=0 / direct=3 / weightb=1 / open_gop=0 / weightp=2 / keyint=240 / keyint_min=23 / scenecut=40 / intra_refresh=0 / rc_lookahead=40 / rc=2pass / mbtree=1 / bitrate=809 / ratetol=1.0 / qcomp=0.60 / qpmin=0 / qpmax=69 / qpstep=4 / cplxblur=20.0 / qblur=0.5 / vbv_maxrate=50000 / vbv_bufsize=62500 / nal_hrd=none / filler=0 / ip_ratio=1.40 / aq=3:1.00
Default : Да
Forced : Нет
Аудио
Идентификатор : 2
Формат : AAC
Формат/Информация : Advanced Audio Codec
Профиль формата : LC
Идентификатор кодека : A_AAC
Продолжительность : 1 ч. 58 м.
Битрейт : 72,0 Кбит/сек
Каналы : 2 канала
Расположение каналов : Front: L R
Частота : 48,0 КГц
Частота кадров : 46,875 кадров/сек (1024 SPF)
Метод сжатия : С потерями
Задержка видео : 9 мс.
Размер потока : 60,9 Мбайт (8%)
Default : Да
Forced : Нет
Текст
Идентификатор : 3
Формат : UTF-8
Идентификатор кодека : S_TEXT/UTF8
Идентификатор кодека/Информация : UTF-8 Plain Text
Продолжительность : 1 ч. 52 м.
Битрейт : 52 бит/сек
ElementCount : 986
Размер потока : 43,8 Кбайт (0%)
Заголовок : Full
Язык : Russian
Default : Нет
Forced : Нет
Меню
00:00:00.000 : en:Main Titles
00:03:03.000 : en:Return to Tuscany
00:09:47.000 : en:The Swimming Pool
00:15:25.000 : en:Memories of Sara
00:17:54.000 : en:A Sleepless Night
00:20:51.000 : en:In Need of a Ravisher
00:25:21.000 : en:Mad About Lucy
00:29:42.000 : en:Artist and Model
00:34:54.000 : en:Carlo
00:39:07.000 : en:Too Unnatural
00:40:06.000 : en:A Reason to Stay
00:44:58.000 : en:The Subject of Sex
00:48:55.000 : en:The Technique
00:52:43.000 : en:Looking for Niccolò
00:55:26.000 : en:The Lieutenant
00:56:35.000 : en:The Frivolity of the Dying
00:58:52.000 : en:The Pizzeria
01:01:16.000 : en:Eyes on Lucy
01:05:29.000 : en:The Reluctant Virgin
01:09:50.000 : en:Green Sandals
01:14:47.000 : en:The Donatis' Party
01:17:57.000 : en:A Dance with Carlo
01:20:42.000 : en:Someone to Take Home
01:25:48.000 : en:Something Lost
01:28:40.000 : en:A Night for Love
01:30:05.000 : en:The Next Morning
01:33:13.000 : en:Goodbye, Alex
01:37:26.000 : en:Our Secret
01:41:29.000 : en:Lucy and Osvaldo
01:46:12.000 : en:I Want to Go Back
01:48:03.000 : en:Two Virgins
01:53:01.000 : en:End Titles

Скриншоты


[Цитировать]



Показать сообщения:    

Текущее время: 25-Сен 15:18

Часовой пояс: UTC + 6


Вы не можете начинать темы
Вы не можете отвечать на сообщения
Вы не можете редактировать свои сообщения
Вы не можете удалять свои сообщения
Вы не можете голосовать в опросах
Вы не можете прикреплять файлы к сообщениям
Вы не можете скачивать файлы

!ВНИМАНИЕ!
Сайт не предоставляет электронные версии произведений, а занимается лишь коллекционированием и каталогизацией ссылок, присылаемых и публикуемых на форуме нашими читателями. Если вы являетесь правообладателем какого-либо представленного материала и не желаете, чтобы ссылка на него находилась в нашем каталоге, свяжитесь с нами, и мы незамедлительно удалим ее. Файлы для обмена на трекере предоставлены пользователями сайта, и администрация не несет ответственности за их содержание. Просьба не заливать файлы, защищенные авторскими правами, а также файлы нелегального содержания!