[ Сегодня идет свободное скачивание без начисления Download ]


Статистика раздачи
Нет
 
   
 
 
 
 
Королева Испании / La reina de España
Информация о фильме
Название: Королева Испании
Оригинальное название: La reina de España
Год выхода: 2016
Жанр: Драма, комедия
Режиссер: Фернандо Труэба
В ролях: Пенелопа Крус, Кэри Элвис, Мэнди Пэтинкин, Хуан Антонио Байона, Хавьер Камара, Сантьяго Сегура, Клайв Ревилл, Хорхе Санс, Аида Фольч, Антонио Ресинес
О фильме:
Она бежала от ухаживаний Геббельса, она покорила Голливуд, но не вынесла удушья славы и вернулась на родину. Очутившись в послевоенной Испании, Макарена хочет начать новую жизнь, дает согласие на съемки в фильме, где играет королеву Изабеллу I. Но бурное прошлое не отпускает ее…

Семпл
Страна: Испания
Студия: Atresmedia Cine
Продолжительность: 02:07:36
Перевод: Дублированный
Файл
Кодек: h.264
Качество: BDRip AVC
Видео: MPEG-4 AVC, 2160 Кбит/с, 1024x432, 23,976 кадр/с
Звук:
Русский (AC3, 6 ch, 448 Кбит/с) / Дубляж
Испанский (AC3, 6 ch, 448 Кбит/с)
Субтитры: Испанские местами (хардсаб)
Сохранены оригинальные главы как на Blu-ray

MI

General
Unique ID : 172060028942323419921373470545169139543 (0x81718E62F0D2C1C69BC63752D484C757)
Complete name : D:uTorrentKoroleva.Ispanii.2016.BDRip.AVC.MediaClub.mkv
Format : Matroska
Format version : Version 4 / Version 2
File size : 2.72 GiB
Duration : 2 h 7 min
Overall bit rate : 3 057 kb/s
Encoded date : UTC 2017-10-06 04:40:48 / UTC 2017-10-03T08:36:42Z
Writing application : mkvmerge v16.0.0 ('Protest') 64-bit
Writing library : libebml v1.3.5 + libmatroska v1.4.8 / Lavf57.7.2
Video
ID : 1
Format : AVC
Format/Info : Advanced Video Codec
Format profile : High@L4.1
Format settings, CABAC : Yes
Format settings, ReFrames : 14 frames
Codec ID : V_MPEG4/ISO/AVC
Duration : 2 h 7 min
Bit rate : 2 160 kb/s
Width : 1 024 pixels
Height : 432 pixels
Display aspect ratio : 2.40:1
Frame rate mode : Constant
Frame rate : 23.976 (24000/1001) FPS
Color space : YUV
Chroma subsampling : 4:2:0
Bit depth : 8 bits
Scan type : Progressive
Bits/(Pixel*Frame) : 0.204
Stream size : 1.87 GiB (69%)
Title : BDRip by Silverok
Writing library : x264 core 148 r2708 86b7198
Encoding settings : cabac=1 / ref=14 / deblock=1:-3:-3 / analyse=0x3:0x113 / me=umh / subme=11 / psy=1 / psy_rd=1.00:0.00 / mixed_ref=1 / me_range=24 / chroma_me=1 / trellis=2 / 8x8dct=1 / cqm=0 / deadzone=21,11 / fast_pskip=1 / chroma_qp_offset=-2 / threads=12 / lookahead_threads=1 / sliced_threads=0 / nr=0 / decimate=0 / interlaced=0 / bluray_compat=0 / constrained_intra=0 / bframes=16 / b_pyramid=2 / b_adapt=1 / b_bias=0 / direct=1 / weightb=1 / open_gop=0 / weightp=2 / keyint=240 / keyint_min=24 / scenecut=40 / intra_refresh=0 / rc_lookahead=40 / rc=2pass / mbtree=1 / bitrate=2160 / ratetol=1.0 / qcomp=0.60 / qpmin=0 / qpmax=69 / qpstep=4 / cplxblur=20.0 / qblur=0.5 / vbv_maxrate=62500 / vbv_bufsize=78125 / nal_hrd=none / filler=0 / ip_ratio=1.40 / aq=1:1.00
Default : Yes
Forced : No
Color range : Limited
Color primaries : BT.709
Transfer characteristics : BT.709
Matrix coefficients : BT.709
Statistics Tags Issue : mkvmerge v16.0.0 ('Protest') 64-bit 2017-10-06 04:40:48 / mkvmerge v16.0.0 ('Protest') 64-bit 2017-10-06 04:40:48 / UTC 2017-10-03T08:36:42Z
FromStats_BitRate : 2159288
FromStats_Duration : 02:07:36.065000000
FromStats_FrameCount : 183561
FromStats_StreamSize : 2066456972
Audio #1
ID : 2
Format : AC-3
Format/Info : Audio Coding 3
Format settings, Endianness : Big
Codec ID : A_AC3
Duration : 2 h 7 min
Bit rate mode : Constant
Bit rate : 448 kb/s
Channel(s) : 6 channels
Channel positions : Front: L C R, Side: L R, LFE
Sampling rate : 48.0 kHz
Frame rate : 31.250 FPS (1536 spf)
Bit depth : 16 bits
Compression mode : Lossy
Stream size : 409 MiB (15%)
Title : Дубляж
Language : Russian
Service kind : Complete Main
Default : Yes
Forced : No
Statistics Tags Issue : mkvmerge v16.0.0 ('Protest') 64-bit 2017-10-06 04:40:48 / mkvmerge v16.0.0 ('Protest') 64-bit 2017-10-06 04:40:48 / UTC 2017-10-03T08:36:42Z
FromStats_BitRate : 448000
FromStats_Duration : 02:07:36.128000000
FromStats_FrameCount : 239254
FromStats_StreamSize : 428743168
Audio #2
ID : 3
Format : AC-3
Format/Info : Audio Coding 3
Format settings, Endianness : Big
Codec ID : A_AC3
Duration : 2 h 7 min
Bit rate mode : Constant
Bit rate : 448 kb/s
Channel(s) : 6 channels
Channel positions : Front: L C R, Side: L R, LFE
Sampling rate : 48.0 kHz
Frame rate : 31.250 FPS (1536 spf)
Bit depth : 16 bits
Compression mode : Lossy
Delay relative to video : -5 ms
Stream size : 409 MiB (15%)
Language : Spanish
Service kind : Complete Main
Default : No
Forced : No
Statistics Tags Issue : mkvmerge v16.0.0 ('Protest') 64-bit 2017-10-06 04:40:48 / mkvmerge v16.0.0 ('Protest') 64-bit 2017-10-06 04:40:48 / UTC 2017-10-03T08:36:42Z
FromStats_BitRate : 448000
FromStats_Duration : 02:07:36.032000000
FromStats_FrameCount : 239251
FromStats_StreamSize : 428737792
Menu
00:00:00.000 : :Chapter 1
00:04:50.457 : :Chapter 2
00:06:32.517 : :Chapter 3
00:14:36.250 : :Chapter 4
00:18:54.342 : :Chapter 5
00:24:47.027 : :Chapter 6
00:32:19.020 : :Chapter 7
00:35:04.060 : :Chapter 8
00:45:16.756 : :Chapter 9
00:53:35.921 : :Chapter 10
01:02:52.310 : :Chapter 11
01:24:00.077 : :Chapter 12
01:29:09.886 : :Chapter 13
01:41:30.918 : :Chapter 14
01:51:25.262 : :Chapter 15
02:00:01.945 : :Chapter 16
02:04:16.574 : :Chapter 17

Скриншоты

[Цитировать]



Показать сообщения:    

Текущее время: 25-Сен 13:10

Часовой пояс: UTC + 6


Вы не можете начинать темы
Вы не можете отвечать на сообщения
Вы не можете редактировать свои сообщения
Вы не можете удалять свои сообщения
Вы не можете голосовать в опросах
Вы не можете прикреплять файлы к сообщениям
Вы не можете скачивать файлы

!ВНИМАНИЕ!
Сайт не предоставляет электронные версии произведений, а занимается лишь коллекционированием и каталогизацией ссылок, присылаемых и публикуемых на форуме нашими читателями. Если вы являетесь правообладателем какого-либо представленного материала и не желаете, чтобы ссылка на него находилась в нашем каталоге, свяжитесь с нами, и мы незамедлительно удалим ее. Файлы для обмена на трекере предоставлены пользователями сайта, и администрация не несет ответственности за их содержание. Просьба не заливать файлы, защищенные авторскими правами, а также файлы нелегального содержания!