[ Сегодня идет свободное скачивание без начисления Download ]


Статистика раздачи
Нет
 
   
 
Top  
 
 
-Ты встретишь таинственного незнакомца / You Will Meet a Tall Dark Stranger (2010) BDRip- Русское название: Ты встретишь таинственного незнакомца
Оригинальное название: You Will Meet a Tall Dark Stranger
Год выпуска: 2010
Жанр: Комедия, Драма, Мелодрама
Описание фильма:
Альфи и Хелена — среднестатистическая семейная пара. Они давно живут вместе и успели охладеть друг к другу. Однажды Альфи встречает хорошенькую проститутку Шармейн, решает вспомнить молодость и приударить за ней. Убитая горем Хелена идет к гадалке.
Прорицательница предсказывает женщине счастливое будущее. Взрослая дочь Хелены и Альфи — Салли — тоже несчастлива в браке. Муж Рой не обращает на нее внимания. Страдая от депрессии, девушка провоцирует скандал со своим боссом Гретом, хозяином элитной картинной галереи. Тем временем Рой, писатель и неисправимый романтик, влюбляется в загадочную соседку со странным именем Диа…
Казалось бы, ничто не сможет распутать этот сложный клубок неприятностей, но жизнь, как всегда, все расставит по своим местам.
Режиссер: Вуди Аллен
Актеры: Наоми Уоттс, Джош Бролин, Антонио Бандерас, Энтони Хопкинс, Джемма Джонс, Полин Коллинз, Руперт Фрейзер, Келли Харрисон, Фрида Пинто, Элеанор Гекс
Продолжительность: 01:38:33
Перевод: Дубляж + Авторский одноголосый (Ю.Сербин)
Язык субтитров: Русские, Английские (SRT)
Вид субтитров: Отдельным файлом

Дата мировой премьеры: 15 мая 2010
Дата российской премьеры: 17 февраля 2011
Дата выхода DVD релиза: 27 октября 2011
Видеокодек: Xvid
Битрейт видео: ~1765 kb/s
Размер кадра: 720х400
Качество видео: BDRip
Аудио#1: 48 kHz, AC3 Dolby Digital 6 ch, 448.00 kbps / Дубляж
Аудио#2: 48 kHz, AC3 Dolby Digital 2 ch, 192.00 kbps / Авторский одноголосый (Ю.Сербин)
Аудио#3: 48 kHz, AC3 Dolby Digital 3 ch, 448.00 kbps / Оригинал (Английский)
&

MI

Общее
Полное имя : E:\Фильмы М\You.Will.Meet.a.Tall.Dark.Stranger.2010.BDRip\You Will Meet a Tall Dark Stranger.2010.BDRip.avi
Формат : AVI
Формат/Информация : Audio Video Interleave
Размер файла : 1,98 Гбайт
Продолжительность : 1 ч. 38 м.
Общий поток : 2871 Кбит/сек
Программа кодирования : VirtualDubModRus 1.5.10.2 (build 2542/release)
Библиотека кодирования : VirtualDubMod build 2542/release
Видео
Идентификатор : 0
Формат : MPEG-4 Visual
Профиль формата : Advanced Simple@L5
Параметр BVOP формата : 1
Параметр QPel формата : Нет
Параметр GMC формата : Без точки перехода
Параметр матрицы формата : Выборочная
Режим смешивания : Сжатый битовый поток
Идентификатор кодека : XVID
Идентификатор кодека/Подсказка : XviD
Продолжительность : 1 ч. 38 м.
Битрейт : 1765 Кбит/сек
Ширина : 720 пикселей
Высота : 400 пикселей
Соотношение сторон : 16:9
Частота кадров : 23,976 кадра/сек
Цветовое пространство : YUV
Субдискретизация насыщенности : 4:2:0
Битовая глубина : 8 бит
Тип развёртки : Прогрессивная
Метод сжатия : С потерями
Бит/(Пиксели*Кадры) : 0.256
Размер потока : 1,21 Гбайт (61%)
Библиотека кодирования : XviD 65
Аудио #1
Идентификатор : 1
Формат : AC-3
Формат/Информация : Audio Coding 3
Расширение режима : CM (complete main)
Параметр Endianness формата : Big
Идентификатор кодека : 2000
Продолжительность : 1 ч. 38 м.
Вид битрейта : Постоянный
Битрейт : 448 Кбит/сек
Каналы : 6 каналов
Расположение каналов : Front: L C R, Side: L R, LFE
Частота : 48,0 КГц
Битовая глубина : 16 бит
Метод сжатия : С потерями
Размер потока : 315 Мбайт (16%)
Выравнивание : Разделение по промежуткам
Продолжительность промежутка : 42 мс. (1,00 видеокадр)
Время предзагрузки промежутка : 500 мс.
Заголовок : Дубляж
Аудио #2
Идентификатор : 2
Формат : AC-3
Формат/Информация : Audio Coding 3
Расширение режима : CM (complete main)
Параметр Endianness формата : Big
Идентификатор кодека : 2000
Продолжительность : 1 ч. 38 м.
Вид битрейта : Постоянный
Битрейт : 192 Кбит/сек
Каналы : 2 канала
Расположение каналов : Front: L R
Частота : 48,0 КГц
Битовая глубина : 16 бит
Метод сжатия : С потерями
Размер потока : 135 Мбайт (7%)
Выравнивание : Разделение по промежуткам
Продолжительность промежутка : 42 мс. (1,00 видеокадр)
Время предзагрузки промежутка : 500 мс.
Заголовок : Авторский одноголосый (Ю.Сербин)
Аудио #3
Идентификатор : 3
Формат : AC-3
Формат/Информация : Audio Coding 3
Расширение режима : CM (complete main)
Параметр Endianness формата : Big
Идентификатор кодека : 2000
Продолжительность : 1 ч. 38 м.
Вид битрейта : Постоянный
Битрейт : 448 Кбит/сек
Каналы : 3 канала
Расположение каналов : Front: L R, Side: C
Частота : 48,0 КГц
Битовая глубина : 16 бит
Метод сжатия : С потерями
Размер потока : 316 Мбайт (16%)
Выравнивание : Разделение по промежуткам
Продолжительность промежутка : 42 мс. (1,00 видеокадр)
Время предзагрузки промежутка : 500 мс.
Заголовок : Оригинал (Английский)
Скриншоты:

Время раздачи: С 10:00 до 22:30

[Цитировать]



Показать сообщения:    

Текущее время: 28-Июл 14:45

Часовой пояс: UTC + 6


Вы не можете начинать темы
Вы не можете отвечать на сообщения
Вы не можете редактировать свои сообщения
Вы не можете удалять свои сообщения
Вы не можете голосовать в опросах
Вы не можете прикреплять файлы к сообщениям
Вы не можете скачивать файлы

!ВНИМАНИЕ!
Сайт не предоставляет электронные версии произведений, а занимается лишь коллекционированием и каталогизацией ссылок, присылаемых и публикуемых на форуме нашими читателями. Если вы являетесь правообладателем какого-либо представленного материала и не желаете, чтобы ссылка на него находилась в нашем каталоге, свяжитесь с нами, и мы незамедлительно удалим ее. Файлы для обмена на трекере предоставлены пользователями сайта, и администрация не несет ответственности за их содержание. Просьба не заливать файлы, защищенные авторскими правами, а также файлы нелегального содержания!